новый адрес
Ссылка на приватное зеркало всего за 1$. Внимание количество ограничено!!!

iTunes

1+1

iTunes

мы

WEB-DL

1

iTunes

Чернобыль

iTunes

Ральф против интернета

Лицензия

ПШазам

Лицензия

Оно 2

Лицензия

30
pack

Вам бонус

ВАЖНО

!!Акция!!

Alien_RageХит недели

RePack

Resident Evil 21

ИГРА 18+

pack

RePack

jed

!!Акция!!

Alien_Rage

RePack

fifa19

RePack

Assassins Creed: Odyssey

RePack

NEED FOR SPEED™ PAYBACK

3 сезон

9 сезон

Бесстыжие 9 сезон

Все сериалы

все сериалы на PB.wtf

RePack

FAR CRY 5
Ребята, катастрофически не хватает 1900р. для оплаты серверов за Октябрь (всвязи с блокировками трафик упал в 3 раза), 1-2р., выручайте.
  

Кадавр / The Possession of Hannah Grace (Дидерик Ван Ружен) [2018, ужасы, триллер, детектив, BDRip-AVC] MVO [HDRezka] - ExKinoRay pb.wtf

Кадавр через торрент pb.wtf

Размер: 1.2 GB | Добавлен: 9 мес. назад | Торрент скачан:93 раза
Скачать  

05-03-2019 04:45 Кадавр Скачать торрент  

Название: Кадавр
Оригинальное название: The Possession of Hannah Grace
Год выхода: 2018
Жанр: Ужасы, триллер, детектив
Режиссер: Дидерик Ван Ружен
В ролях: Шэй Митчелл, Грэй Дэймон, Кирби Джонсон, Ник Тун, Луис Хертэм, Стана Катик, Максимиллиан МакНамара, Джейкоб Минг-Трент, Джеймс А. Уотсон мл., Марианн Байяр

Описание:
Во время обряда экзорцизма одержимая Ханна Грэйс убивает священника, после чего её отец сам душит дочь подушкой. Бывшая полицейская Меган Рид посещает группу анонимных алкоголиков, но никак не может избавиться от видений прошлого. Она устраивается работать по ночам в морг городской больницы Бостона, и в первую же смену туда поступает изуродованное тело девушки. Вскоре Меган начинает казаться, что в пустых коридорах морга кто-то есть, и с этим телом определённо что-то не так.



Страна: США, Broken Road Productions, Screen Gems
Продолжительность: 01:25:44
Перевод: Профессиональный (многоголосый, закадровый) | HDRezka Studio
Субтитры: English Full

БЕЗ КАКОЙ-ЛИБО РЕКЛАМЫ!

Формат: MKV
Качество: BDRip-AVC
Видео: MPEG-4 AVC, 1024x426 (2.40:1), 23.976 fps, 1357 Kbps, 0.130 bit/pixel
Аудио 1: 48 kHz, AC3, 2.0, 192 Kbps | RUS |
Аудио 2: 48 kHz, AC3, 5.1, 448 Kbps | Оригинал | ENG |
General
Unique ID : 247014033325407316166078157431536460610 (0xB9D52C1EE6E86A5AACD55DCE2EA1A342)
Complete name : D:\The.Possession.of.Hannah.Grace.2018.MVO.BDRip.AVC.ExKinoRay.mkv
Format : Matroska
Format version : Version 2
File size : 1.20 GiB
Duration : 1 h 25 min
Overall bit rate : 2 000 kb/s
Movie name : The Possession of Hannah Grace 2018 from ExKinoRay
Encoded date : UTC 2019-03-05 04:19:56
Writing application : mkvmerge v5.6.0 ('Kenya Kane') built on May 27 2012 16:44:04
Writing library : libebml v1.2.3 + libmatroska v1.3.0

Video
ID : 1
Format : AVC
Format/Info : Advanced Video Codec
Format profile : High@L4.1
Format settings, CABAC : Yes
Format settings, ReFrames : 11 frames
Codec ID : V_MPEG4/ISO/AVC
Duration : 1 h 25 min
Bit rate : 1 357 kb/s
Width : 1 024 pixels
Height : 426 pixels
Display aspect ratio : 2.40:1
Frame rate mode : Constant
Frame rate : 23.976 (24000/1001) FPS
Color space : YUV
Chroma subsampling : 4:2:0
Bit depth : 8 bits
Scan type : Progressive
Bits/(Pixel*Frame) : 0.130
Stream size : 810 MiB (66%)
Title : Enigma
Writing library : x264 core 152 r2851 ba24899
Encoding settings : cabac=1 / ref=11 / deblock=1:-2:-2 / analyse=0x3:0x113 / me=umh / subme=10 / psy=1 / psy_rd=1.03:0.10 / mixed_ref=1 / me_range=32 / chroma_me=1 / trellis=2 / 8x8dct=1 / cqm=0 / deadzone=21,11 / fast_pskip=0 / chroma_qp_offset=-3 / threads=12 / lookahead_threads=3 / sliced_threads=0 / nr=0 / decimate=0 / interlaced=0 / bluray_compat=0 / constrained_intra=0 / bframes=10 / b_pyramid=2 / b_adapt=2 / b_bias=0 / direct=3 / weightb=1 / open_gop=0 / weightp=2 / keyint=240 / keyint_min=23 / scenecut=40 / intra_refresh=0 / rc=2pass / mbtree=0 / bitrate=1357 / ratetol=1.0 / qcomp=0.65 / qpmin=0 / qpmax=51 / qpstep=4 / cplxblur=20.0 / qblur=0.5 / ip_ratio=1.30 / pb_ratio=1.20 / aq=2:0.90
Language : English
Default : Yes
Forced : No
Color range : Limited
Color primaries : BT.709
Transfer characteristics : BT.709
Matrix coefficients : BT.709

Audio #1
ID : 2
Format : AC-3
Format/Info : Audio Coding 3
Mode extension : CM (complete main)
Format settings, Endianness : Big
Codec ID : A_AC3
Duration : 1 h 25 min
Bit rate mode : Constant
Bit rate : 192 kb/s
Channel(s) : 2 channels
Channel positions : Front: L R
Sampling rate : 48.0 kHz
Frame rate : 31.250 FPS (1536 spf)
Compression mode : Lossy
Stream size : 118 MiB (10%)
Title : MVO (HDRezka)
Language : Russian
Default : Yes
Forced : No

Audio #2
ID : 3
Format : AC-3
Format/Info : Audio Coding 3
Mode extension : CM (complete main)
Format settings, Endianness : Big
Codec ID : A_AC3
Duration : 1 h 25 min
Bit rate mode : Constant
Bit rate : 448 kb/s
Channel(s) : 6 channels
Channel positions : Front: L C R, Side: L R, LFE
Sampling rate : 48.0 kHz
Frame rate : 31.250 FPS (1536 spf)
Compression mode : Lossy
Stream size : 275 MiB (22%)
Language : English
Default : No
Forced : No

Text
ID : 4
Format : UTF-8
Codec ID : S_TEXT/UTF8
Codec ID/Info : UTF-8 Plain Text
Language : English
Default : No
Forced : No

Menu
00:00:00.000 : :Chapter 01
00:05:30.955 : :Chapter 02
00:10:07.231 : :Chapter 03
00:15:24.548 : :Chapter 04
00:21:30.289 : :Chapter 05
00:26:07.649 : :Chapter 06
00:31:27.719 : :Chapter 07
00:36:12.211 : :Chapter 08
00:41:45.002 : :Chapter 09
00:47:07.115 : :Chapter 10
00:51:57.823 : :Chapter 11
00:56:37.602 : :Chapter 12
01:03:44.320 : :Chapter 13
01:08:01.786 : :Chapter 14
01:13:25.818 : :Chapter 15
01:20:45.674 : :Chapter 16



Релиз от:
Автор релиза: pb.wtf



Скачать Кадавр через торрент https://i109.fastpic.ru/big/2019/0220/cc/d50b7ae5a20652cb34d31ca065b62dcc.jpg Скачать фильм Кадавр через торрент бесплантно в хорошем качестве Описание:Во время обряда экзорцизма одержимая Ханна Грэйс убивает священника, после чего её отец сам душит дочь подушкой. Бывшая ... 7.7 10 6
Info! Золотая раздача, скачанное не засчитывается.
Торрент: Зарегистрирован [2019-03-05 04:45] · скачан: 93 раз
Статус: T временная
Размер: 1.2 GB
Как cкачать? Как скачать Кадавр через торрент | qTorrent

% Раздел Тема Автор DL S | L
Фильмы [HD 720p, 1080p] (Хороший звук DUB, MVO) [ 2.83 GB ] Кадавр / The Possession of Hannah Grace [2018 BDRip 720p] - ExKinoRay Enigma2010 Скачать
2 | 0
T Фильмы 2018 [DVDrip, WEB-DLRip, HDrip] (DUB, MVO) [ 1.3 GB ] Кадавр / The Possession of Hannah Grace [2018 BDRip] MVO [HDRezka] - ExKinoRay Enigma2010 Скачать
1 | 0

28-11-2019 20:33  

Отключить всю рекламу на сайте

    Дорогой пользователь! Огромная просьба, поблагодарите релизера, оцените раздачу и оставьте свои комментарий, если Вы скачали Кадавр через торрент бесплатно! Внесите свою лепту в развитие PiratBit!
    Комментировать посты могут только пользователи прошедшие не сложную регистрацию
    Показать сообщения:    

    Кадавр через торрент
    Скачать бесплатно Кадавр
    Кадавр скачать торрент
    Кадавр смотреть онлайн
    Cкачать фильм Кадавр бесплатно
    Кадавр скачать торрент в хорошем качестве
    Кадавр смотреть онлайн бесплатно в хорошем качестве


    Вы не можете начинать темы
    Вы не можете отвечать на сообщения
    Вы не можете редактировать свои сообщения
    Вы не можете удалять свои сообщения
    Вы не можете голосовать в опросах
    Вы не можете прикреплять файлы к сообщениям
    Вы можете скачивать файлы