Ссылка на приватное зеркало всего за 1$. Внимание количество ограничено!!!

OK

1+1

iTunes

мы

OK

1

WEB-DLRip

Джокер

Пифагор

Ведьмак / The Witcher сериал

iTunes

ПШазам

ОК

Оно 2

iTunes

30
pack

Вам бонус

ВАЖНО

!!Акция!!

Alien_RageХит недели

RePack

Resident Evil 21

ИГРА 18+

pack

RePack

jed

RePack

fifa19

RePack

Assassins Creed: Odyssey

RePack

NEED FOR SPEED™ PAYBACK

4 сезон

9 сезон

Бесстыжие 9 сезон

Все сериалы

все сериалы на PB.wtf

RePack

FAR CRY 5
  

Без промедления / Sense of Urgency (Дэвид Форд) [2017, драма, HDTVRip 720p] MVO ["Синема УС"] pb.wtf

Без промедления через торрент pb.wtf

Размер: 3.16 GB | Добавлен: 10 мес. назад | Торрент скачан:13 раз
Скачать  

05-03-2019 06:40 Без промедления Скачать торрент  

Без промедления / Sense of Urgency Год выпуска: 2017
Страна: США
Жанр: драма
Продолжительность: 01:33:41
Перевод: Любительский (многоголосый) | "Синема УС"
Субтитры: отсутствуют

Режиссер: Дэвид Форд

rating

В ролях:

Майк Л. Холл, Рэнсом Эшли, Майка Оден, Карл Бэйли, Лес Бест, Селас Ботчвей, Джаспер Браун, Джоди Леон Бертон, Мишель Кастелли, Купер Коббс

Описание:

Девочка-подросток из обеспеченной семьи, Иззи, узнает, что была удочерена, и нанимает частного детектива, чтобы найти своих настоящих родителей. Договорившись о встрече с биологической матерью, Иззи садится на первый попавшийся автобус, но его перехватывают угонщики, а девочку используют в качестве выкупа у богатых родителей.

Качество: HDTVRip 720p
Формат: MKV

Видео: h.264,4 442 kb/s, 1280x720
Аудио: Русский, (AC3, 2 ch, 384 Кбит/с)
скриншот  скриншот  скриншот  

Общее
Уникальный идентификатор : 186248238434110591384840412603723157428 (0x8C1E1B1F78A1F36EACA0608B7D0E0FB4)
Полное имя : D:\Sense_of_Urgency.2017.P.HDTV.72Op_KOSHARA.mkv
Формат : Matroska
Версия формата : Version 2
Размер файла : 3,16 Гбайт
Продолжительность : 1 ч. 33 м.
Режим общего битрейта : Переменный
Общий поток : 4827 Кбит/сек
Дата кодирования : UTC 2019-03-04 19:34:58
Программа кодирования : mkvmerge v8.3.0 ('Over the Horizon') 64bit
Библиотека кодирования : libebml v1.3.1 + libmatroska v1.4.2

Видео
Идентификатор : 1
Формат : AVC
Формат/Информация : Advanced Video Codec
Профиль формата : High@L4.1
Параметр CABAC формата : Да
Параметр RefFrames формата : 4 кадра
Идентификатор кодека : V_MPEG4/ISO/AVC
Продолжительность : 1 ч. 33 м.
Вид битрейта : Переменный
Битрейт : 4442 Кбит/сек
Максимальный битрейт : 5000 Кбит/сек
Ширина : 1280 пикселей
Высота : 720 пикселей
Соотношение сторон : 16:9
Режим частоты кадров : Постоянный
Частота кадров : 23,976 (24000/1001) кадра/сек
Стандарт вещания : Component
Цветовое пространство : YUV
Субдискретизация насыщенности : 4:2:0
Битовая глубина : 8 бит
Тип развёртки : Прогрессивная
Бит/(Пиксели*Кадры) : 0.197
Размер потока : 2,84 Гбайт (90%)
Default : Да
Forced : Нет
Цветовой диапазон : Limited
Основные цвета : BT.709
Характеристики трансфера : BT.709
Коэффициенты матрицы : BT.709

Аудио
Идентификатор : 2
Формат : AC-3
Формат/Информация : Audio Coding 3
Расширение режима : CM (complete main)
Параметр Endianness формата : Big
Идентификатор кодека : A_AC3
Продолжительность : 1 ч. 33 м.
Вид битрейта : Постоянный
Битрейт : 384 Кбит/сек
Каналы : 2 канала
Расположение каналов : Front: L R
Частота : 48,0 КГц
Частота кадров : 31,250 кадров/сек (1536 spf)
Метод сжатия : С потерями
Размер потока : 257 Мбайт (8%)
Default : Да
Forced : Нет

pb.wtf



Скачать Без промедления через торрент https://b.radikal.ru/b22/1903/4f/71231d83dd1c.jpg Скачать фильм Без промедления через торрент бесплантно в хорошем качестве Описание: Девочка-подросток из обеспеченной семьи, Иззи, узнает, что была удочерена, и нанимает частного детектива, чтобы найти своих ... 10 10 2
Торрент: Зарегистрирован [2019-03-05 06:40] · скачан: 13 раз
Статус: T временная
Размер: 3.16 GB
Как cкачать? Как скачать Без промедления через торрент | qTorrent

% Раздел Тема Автор DL S | L
T Фильмы (мультфильмы) cо спонсором показа (Новинки AVI/MKV) [ 1.37 GB ] Без промедления / Sense of Urgency [2017 HDTVRip] MVO ["Синема УС"] bober100 Скачать
1 | 0

28-11-2019 20:33  

Отключить всю рекламу на сайте

    Дорогой пользователь! Огромная просьба, поблагодарите релизера, оцените раздачу и оставьте свои комментарий, если Вы скачали Без промедления через торрент бесплатно! Внесите свою лепту в развитие PiratBit!
    Комментировать посты могут только пользователи прошедшие не сложную регистрацию
    Показать сообщения:    

    Без промедления через торрент
    Скачать бесплатно Без промедления
    Без промедления скачать торрент
    Без промедления смотреть онлайн
    Cкачать фильм Без промедления бесплатно
    Без промедления скачать торрент в хорошем качестве
    Без промедления смотреть онлайн бесплатно в хорошем качестве


    Вы не можете начинать темы
    Вы не можете отвечать на сообщения
    Вы не можете редактировать свои сообщения
    Вы не можете удалять свои сообщения
    Вы не можете голосовать в опросах
    Вы не можете прикреплять файлы к сообщениям
    Вы можете скачивать файлы