Ссылка на приватное зеркало нашего сайта всего за 1$. Внимание количество ограничено!!!

2 сезон

iTunes

iTunes

1

iTunes

iTunes

iTunes

WEBRip

iTunes

30
pack

Вам бонус

ВАЖНО

!!Акция!!

Alien_RageХит недели

RePack

Horizon Zero Dawn

ИГРА 18+

pack

RePack

jed

!!Акция!!

Alien_Rage

RePack

fifa19

RePack

Assassins Creed: Odyssey

RePack

NEED FOR SPEED™ PAYBACK

4 сезон

9 сезон

Бесстыжие 9 сезон

Все сериалы

все сериалы на PB.wtf

RePack

FAR CRY 5
  

Ради любви к Джорджу / For the Love of George (Мария Бертон) [2018, драма,мелодрама, комедия, WEB-DL 720p] MVO [AlphaProject] pb.wtf

Ради любви к Джорджу через торрент pb.wtf

Размер: 3.53 GB | Добавлен: 1 год 6 мес. назад | Торрент скачан:10 раз
Скачать  

05-03-2019 06:52 Ради любви к Джорджу Скачать торрент  

Ради любви к Джорджу / For the Love of GeorgeГод выпуска: 2018
Страна: США
Жанр: драма,мелодрама, комедия
Продолжительность: 01:29:35
Перевод: Любительский (многоголосый) | AlphaProject
Субтитры: отсутствуют

Режиссер: Мария Бертон

rating

В ролях:

Надя Джордан, Рекс Ли, Розанна Аркетт, Тейт Донован, Кристен Джонстон, Шон Сайпос, Петра Брайант, Рут Коннелл, Эдриэнн Уитни, Генри Херфорд

Описание:

Необычная комедия о женщине, которой изменяет муж, и она улетает в Лос Анджелес, оставив изменщика в Англии. Она надеется, что встретит там идеального мужчину - Джорджа Клуни.

Качество: WEB-DL 720p
Формат: MKV

Видео: h.264,5 261 Кбит/с, 1280x720
Аудио#1: Русский, (AC3, 2 ch, 384 Кбит/с)
скриншот  скриншот  скриншот  

Общее
Уникальный идентификатор : 224597230491262528872065847919010184684 (0xA8F7DA68E334155CBAFC992DF26CFDEC)
Полное имя : D:\For.the.Love.of.George.2018.P.WEB-DL.72Op.mkv
Формат : Matroska
Версия формата : Version 2
Размер файла : 3,53 Гбайт
Продолжительность : 1 ч. 29 м.
Режим общего битрейта : Переменный
Общий поток : 5647 Кбит/сек
Дата кодирования : UTC 2019-03-04 19:32:05
Программа кодирования : mkvmerge v8.3.0 ('Over the Horizon') 64bit
Библиотека кодирования : libebml v1.3.1 + libmatroska v1.4.2

Видео
Идентификатор : 1
Формат : AVC
Формат/Информация : Advanced Video Codec
Профиль формата : High@L4.1
Параметр CABAC формата : Да
Параметр RefFrames формата : 4 кадра
Идентификатор кодека : V_MPEG4/ISO/AVC
Продолжительность : 1 ч. 29 м.
Вид битрейта : Переменный
Битрейт : 5261 Кбит/сек
Максимальный битрейт : 6000 Кбит/сек
Ширина : 1280 пикселей
Высота : 720 пикселей
Соотношение сторон : 16:9
Режим частоты кадров : Постоянный
Частота кадров : 23,976 (24000/1001) кадра/сек
Стандарт вещания : Component
Цветовое пространство : YUV
Субдискретизация насыщенности : 4:2:0
Битовая глубина : 8 бит
Тип развёртки : Прогрессивная
Бит/(Пиксели*Кадры) : 0.233
Размер потока : 3,22 Гбайт (91%)
Default : Да
Forced : Нет
Цветовой диапазон : Limited
Основные цвета : BT.709
Характеристики трансфера : BT.709
Коэффициенты матрицы : BT.709

Аудио
Идентификатор : 2
Формат : AC-3
Формат/Информация : Audio Coding 3
Расширение режима : CM (complete main)
Параметр Endianness формата : Big
Идентификатор кодека : A_AC3
Продолжительность : 1 ч. 29 м.
Вид битрейта : Постоянный
Битрейт : 384 Кбит/сек
Каналы : 2 канала
Расположение каналов : Front: L R
Частота : 48,0 КГц
Частота кадров : 31,250 кадров/сек (1536 spf)
Метод сжатия : С потерями
Размер потока : 246 Мбайт (7%)
Default : Да
Forced : Нет

pb.wtf



Скачать Ради любви к Джорджу через торрент https://c.radikal.ru/c02/1903/05/4a1bb0c23fca.jpg Скачать фильм Ради любви к Джорджу через торрент бесплантно в хорошем качестве Описание: Необычная комедия о женщине, которой изменяет муж, и она улетает в Лос Анджелес, оставив изменщика в Англии. Она надеется, что ... 10 10 2
Торрент: Зарегистрирован [2019-03-05 06:52] · скачан: 10 раз
Статус: T временная
Размер: 3.53 GB
Как cкачать? Как скачать Ради любви к Джорджу через торрент | qTorrent

% Раздел Тема Автор DL S | L
T Фильмы (мультфильмы) cо спонсором показа (Новинки AVI/MKV) [ 1.37 GB ] Ради любви к Джорджу / For the Love of George [2018 WEB-DLRip] MVO [AlphaProject] bober100 Скачать
1 | 0

28-11-2019 20:33  

Отключить всю рекламу на сайте

    Дорогой пользователь! Огромная просьба, поблагодарите релизера, оцените раздачу и оставьте свои комментарий, если Вы скачали Ради любви к Джорджу через торрент бесплатно! Внесите свою лепту в развитие PiratBit!
    Комментировать посты могут только пользователи прошедшие не сложную регистрацию
    Показать сообщения:    

    Ради любви к Джорджу через торрент
    Скачать бесплатно Ради любви к Джорджу
    Ради любви к Джорджу скачать торрент
    Ради любви к Джорджу смотреть онлайн
    Cкачать фильм Ради любви к Джорджу бесплатно
    Ради любви к Джорджу скачать торрент в хорошем качестве
    Ради любви к Джорджу смотреть онлайн бесплатно в хорошем качестве


    Вы не можете начинать темы
    Вы не можете отвечать на сообщения
    Вы не можете редактировать свои сообщения
    Вы не можете удалять свои сообщения
    Вы не можете голосовать в опросах
    Вы не можете прикреплять файлы к сообщениям
    Вы можете скачивать файлы