новый адрес
Ссылка на приватное зеркало всего за 1$. Внимание количество ограничено!!!

iTunes

1+1

iTunes

мы

iTunes

1

iTunes

Чернобыль

iTunes

Ральф против интернета

Лицензия

ПШазам

Лицензия

Оно 2

Лицензия

30
pack

Вам бонус

ВАЖНО

!!Акция!!

Alien_RageХит недели

RePack

Resident Evil 21

ИГРА 18+

pack

RePack

jed

!!Акция!!

Alien_Rage

RePack

fifa19

RePack

Assassins Creed: Odyssey

RePack

NEED FOR SPEED™ PAYBACK

3 сезон

9 сезон

Бесстыжие 9 сезон

Все сериалы

все сериалы на PB.wtf

RePack

FAR CRY 5
Ребята, катастрофически не хватает 1900р. для оплаты серверов за Октябрь (всвязи с блокировками трафик упал в 3 раза), 1-2р., выручайте.
  

Черная чайка (Григорий Колтунов) [1962, СССР, приключения, DVDRip от AVP Studio] pb.wtf

Черная чайка через торрент pb.wtf

Размер: 1.23 GB | Добавлен: 8 мес. назад | Торрент скачан:3 раза
Скачать  

05-03-2019 07:56 Черная чайка Скачать торрент  

Черная чайка
Страна: СССР
Производство: Ленфильм

Жанр: приключения
Год выпуска: 1962
Продолжительность: 01:37:55

Перевод: Не требуется
Cубтитры: нет
Оригинальная аудиодорожка: русский

Режиссер: Григорий Колтунов

В ролях:
Джейхун (Джейк) Мирзоев, Николай Волков (старший), Юлия Севела, Алексей Локтев, Анатолий Адоскин, Сергей Юрский, Игорь Дмитриев, Саида Дадашева, Виктория Вика, Анатолий Подшивалов, Валя Ефимов...
Об актёрах подробней

Описание:
О кубинском мальчике Маноло, его друге по кличке Сардинка и кубинской революции...

Источник: DVD5 R5
Качество видео: DVDRip
Формат видео: AVI

Видео: 704х480 (3:2), 25,000 fps, XviD ~ 1590 kbps avg, 0.188 bit/pixel
Аудио: 48 kHz, Dolby Digital AC3 2.0, 192 kbps

Раздача от:
Общее
Полное имя : CHernaya.chayka.1962.DVDRip_[New-team]_by_AVP_Studio.avi
Формат : AVI
Формат/Информация : Audio Video Interleave
Размер файла : 1,23 Гбайт
Продолжительность : 1 ч. 37 м.
Общий поток : 1792 Кбит/сек
Программа кодирования : VirtualDubMod 1.5.10.3 | www.virtualdub-fr.org || (build 2550/release)
Библиотека кодирования : VirtualDubMod build 2550/release

Видео
Идентификатор : 0
Формат : MPEG-4 Visual
Профиль формата : Advanced Simple@L5
Настройки формата : BVOP1 / Custom Matrix
Параметр BVOP формата : 1
Параметр QPel формата : Нет
Параметр GMC формата : Без точки перехода
Параметр матрицы формата : Выборочная
Идентификатор кодека : XVID
Идентификатор кодека/Подсказка : XviD
Продолжительность : 1 ч. 37 м.
Битрейт : 1590 Кбит/сек
Ширина : 704 пикселя
Высота : 480 пикселей
Соотношение сторон : 3:2
Частота кадров : 25,000 кадров/сек
Цветовое пространство : YUV
Субдискретизация насыщенности : 4:2:0
Битовая глубина : 8 бит
Тип развёртки : Прогрессивная
Метод сжатия : С потерями
Бит/(Пиксели*Кадры) : 0.188
Размер потока : 1,09 Гбайт (89%)
Библиотека кодирования : XviD 73

Аудио
Идентификатор : 1
Формат : AC-3
Формат/Информация : Audio Coding 3
Коммерческое название : Dolby Digital
Идентификатор кодека : 2000
Продолжительность : 1 ч. 37 м.
Вид битрейта : Постоянный
Битрейт : 192 Кбит/сек
Каналы : 2 канала
Channel layout : L R
Частота : 48,0 КГц
Частота кадров : 31,250 кадров/сек (1536 SPF)
Битовая глубина : 16 бит
Метод сжатия : С потерями
Размер потока : 134 Мбайт (11%)
Выравнивание : Разделение по промежуткам
Продолжительность промежутка : 40 мс. (1,00 видеокадр)
Время предзагрузки промежутка : 500 мс
pb.wtf



Скачать Черная чайка через торрент http://picplus.ru/img/1903/04/b21f5685.png Скачать фильм Черная чайка через торрент бесплантно в хорошем качестве Описание:О кубинском мальчике Маноло, его друге по кличке Сардинка и кубинской революции... Источник: DVD5 ... 5 10 1
Торрент: Зарегистрирован [2019-03-05 07:56] · скачан: 3 раз
Статус: √ проверено
Размер: 1.23 GB
Как cкачать? Как скачать Черная чайка через торрент | qTorrent

% Раздел Тема Автор DL S | L
Кино СССР [ 1.22 GB ] Черная чайка [1962 СССР DVDRip-AVC от AVP Studio] AVP Studio Скачать
1 | 0


>> Переходим по ссылке <<
Автоматически подгузится скрипт который настроит ваш браузер на выигрыш!!
После настройки браузера вероятность выигрыша увеличется в 4.1-4,6 раза.
В течение 6 секунд вам откроется настроенный интерфейс казино, с повышенной вероятностью выигрыша.






Отзывы и комментарии о схеме читаем и пишем здесь: ---> Отзывы и комментарии о схеме

Новые благодарочки в телеграм довольных пользователей:
скриншот   скриншот   скриншот   скриншот   скриншот
    Дорогой пользователь! Огромная просьба, поблагодарите релизера, оцените раздачу и оставьте свои комментарий, если Вы скачали Черная чайка через торрент бесплатно! Внесите свою лепту в развитие PiratBit!
    Комментировать посты могут только пользователи прошедшие не сложную регистрацию
    Показать сообщения:    

    Черная чайка через торрент
    Скачать бесплатно Черная чайка
    Черная чайка скачать торрент
    Черная чайка смотреть онлайн
    Cкачать фильм Черная чайка бесплатно
    Черная чайка скачать торрент в хорошем качестве
    Черная чайка смотреть онлайн бесплатно в хорошем качестве


    Вы не можете начинать темы
    Вы не можете отвечать на сообщения
    Вы не можете редактировать свои сообщения
    Вы не можете удалять свои сообщения
    Вы не можете голосовать в опросах
    Вы не можете прикреплять файлы к сообщениям
    Вы можете скачивать файлы