Ссылка на приватное зеркало всего за 1$. Внимание количество ограничено!!!

OK

1+1

iTunes

мы

OK

1

WEB-DLRip

Джокер

Пифагор

Ведьмак / The Witcher сериал

iTunes

ПШазам

ОК

Оно 2

iTunes

30
pack

Вам бонус

ВАЖНО

!!Акция!!

Alien_RageХит недели

RePack

Resident Evil 21

ИГРА 18+

pack

RePack

jed

RePack

fifa19

RePack

Assassins Creed: Odyssey

RePack

NEED FOR SPEED™ PAYBACK

4 сезон

9 сезон

Бесстыжие 9 сезон

Все сериалы

все сериалы на PB.wtf

RePack

FAR CRY 5
  

Защитник / The Protector (Тоска Маск) [2019, Мелодрама, WEB-DL 720p] MVO ["Синема УС"] pb.wtf

Защитник через торрент pb.wtf

Размер: 4.64 GB | Добавлен: 10 мес. назад | Торрент скачан:40 раз
Скачать  

05-03-2019 09:46 Защитник Скачать торрент  

Защитник / The ProtectorГод выпуска: 2019
Страна: США
Жанр: Мелодрама
Продолжительность: 02:06:38
Перевод: Любительский (многоголосый) | "Синема УС"
Субтитры: отсутствуют

Режиссер: Тоска Маск



В ролях:

Эмма Ригби, Диармед Мёрта, Дэвид Бамбер

Описание:

После того как миллионер Тревор Логан обнаруживает, что кто-то угрожает жизни его дочери, Камиллы, он нанимает опытного охранника Джейка Шарпа для ее защиты. У молодых людей вспыхивают чувства, но они еще не знают с чем им предстоит столкнуться.

Качество: WEB-DL 720p
Формат: MKV

Видео: h.264,4 863 Кбит/с, 1280x720
Аудио: Русский, (AC3, 2 ch, 384 Кбит/с)
скриншот  скриншот  скриншот  

Общее
Уникальный идентификатор : 192026765119429403412894264726789854813 (0x9077027C23F1FB80B9CA2F32AF48965D)
Полное имя : D:\The.Protector.2019.P.WEB-DL.72Op.mkv
Формат : Matroska
Версия формата : Version 2
Размер файла : 4,64 Гбайт
Продолжительность : 2 ч. 6 м.
Режим общего битрейта : Переменный
Общий поток : 5248 Кбит/сек
Дата кодирования : UTC 2019-03-04 15:23:44
Программа кодирования : mkvmerge v8.3.0 ('Over the Horizon') 64bit
Библиотека кодирования : libebml v1.3.1 + libmatroska v1.4.2

Видео
Идентификатор : 1
Формат : AVC
Формат/Информация : Advanced Video Codec
Профиль формата : High@L4.1
Параметр CABAC формата : Да
Параметр RefFrames формата : 4 кадра
Идентификатор кодека : V_MPEG4/ISO/AVC
Продолжительность : 2 ч. 6 м.
Вид битрейта : Переменный
Битрейт : 4863 Кбит/сек
Максимальный битрейт : 5500 Кбит/сек
Ширина : 1280 пикселей
Высота : 720 пикселей
Соотношение сторон : 16:9
Режим частоты кадров : Постоянный
Частота кадров : 23,976 (24000/1001) кадра/сек
Стандарт вещания : Component
Цветовое пространство : YUV
Субдискретизация насыщенности : 4:2:0
Битовая глубина : 8 бит
Тип развёртки : Прогрессивная
Бит/(Пиксели*Кадры) : 0.215
Размер потока : 4,21 Гбайт (91%)
Default : Да
Forced : Нет
Цветовой диапазон : Limited
Основные цвета : BT.709
Характеристики трансфера : BT.709
Коэффициенты матрицы : BT.709

Аудио
Идентификатор : 2
Формат : AC-3
Формат/Информация : Audio Coding 3
Расширение режима : CM (complete main)
Параметр Endianness формата : Big
Идентификатор кодека : A_AC3
Продолжительность : 2 ч. 6 м.
Вид битрейта : Постоянный
Битрейт : 384 Кбит/сек
Каналы : 2 канала
Расположение каналов : Front: L R
Частота : 48,0 КГц
Частота кадров : 31,250 кадров/сек (1536 spf)
Метод сжатия : С потерями
Размер потока : 348 Мбайт (7%)
Default : Да
Forced : Нет

pb.wtf



Скачать Защитник через торрент http://img10.lostpic.net/2019/03/05/9d08025ac2235e4c98b203bbb363d000.jpg Скачать фильм Защитник через торрент бесплантно в хорошем качестве Описание: После того как миллионер Тревор Логан обнаруживает, что кто-то угрожает жизни его дочери, Камиллы, он нанимает опытного охранника ... 10 10 3
Торрент: Зарегистрирован [2019-03-05 09:46] · скачан: 40 раз
Статус: T временная
Размер: 4.64 GB
Как cкачать? Как скачать Защитник через торрент | qTorrent

% Раздел Тема Автор DL S | L
Зарубежные сериалы [ 8.48 GB ] Защитник / Hakan: Muhafiz / The Protector / Сезон: 1-2 / Серии: 1-18 из 18 [2018-2019 WEBRip] [MVO] killermax2013 Скачать
1 | 0
Зарубежные сериалы [ 12.87 GB ] Защитник / Hakan: Muhafiz / The Protector / Сезон: 2 / Серии: 1-8 из 8 [2019 WEB-DL 1080p] [MVO] killermax2013 Скачать
1 | 0
Фильмы с украинским озвучиванием [ 19.52 GB ] Захисник / Защитник / The Protector / Сезон: 2 / Серии: 1-8 из 8 [2019 WEB-DL 1080p] MVO [DniproFilm] bober100 Скачать
1 | 0
Зарубежные сериалы [ 19.01 GB ] Защитник / The Protector / Сезон: 2 / Серии: 1-8 из 8 [2019 WEBRip 1080p] MVO [Octopus] bober100 Скачать
1 | 0
T Фильмы (мультфильмы) cо спонсором показа (Новинки AVI/MKV) [ 1.37 GB ] Защитник / The Protector [2019 Мело WEB-DLRip] MVO ["Синема УС"] bober100 Скачать
1 | 0
T Фильмы (мультфильмы) cо спонсором показа (Новинки AVI/MKV) [ 2.05 GB ] Защитник / The Protector [2019 Мело WEB-DLRip] MVO ["Синема УС"] bober100 Скачать
1 | 0
Зарубежные сериалы [ 4.34 GB ] Защитник / The Protector / Сезон: 1 / Серии: 1-10 из 10 [2018 WEB-DLRip] MVO [Netflix] bober100 Скачать
1 | 0

28-11-2019 20:33  

Отключить всю рекламу на сайте

    Дорогой пользователь! Огромная просьба, поблагодарите релизера, оцените раздачу и оставьте свои комментарий, если Вы скачали Защитник через торрент бесплатно! Внесите свою лепту в развитие PiratBit!
    Комментировать посты могут только пользователи прошедшие не сложную регистрацию
    Показать сообщения:    

    Защитник через торрент
    Скачать бесплатно Защитник
    Защитник скачать торрент
    Защитник смотреть онлайн
    Cкачать фильм Защитник бесплатно
    Защитник скачать торрент в хорошем качестве
    Защитник смотреть онлайн бесплатно в хорошем качестве


    Вы не можете начинать темы
    Вы не можете отвечать на сообщения
    Вы не можете редактировать свои сообщения
    Вы не можете удалять свои сообщения
    Вы не можете голосовать в опросах
    Вы не можете прикреплять файлы к сообщениям
    Вы можете скачивать файлы