Ссылка на приватное зеркало всего за 1$. Внимание количество ограничено!!!

OK

1+1

iTunes

мы

OK

1

WEB-DLRip

Джокер

Пифагор

Ведьмак / The Witcher сериал

iTunes

ПШазам

ОК

Оно 2

iTunes

30
pack

Вам бонус

ВАЖНО

!!Акция!!

Alien_RageХит недели

RePack

Resident Evil 21

ИГРА 18+

pack

RePack

jed

RePack

fifa19

RePack

Assassins Creed: Odyssey

RePack

NEED FOR SPEED™ PAYBACK

4 сезон

9 сезон

Бесстыжие 9 сезон

Все сериалы

все сериалы на PB.wtf

RePack

FAR CRY 5
  

Вакханалия / Bacchanalia (Гари Мейер) [2017, Ужасы, комедия, WEB-DL 720p] MVO ["Синема УС"] pb.wtf

Вакханалия через торрент pb.wtf

Размер: 4.12 GB | Добавлен: 10 мес. назад | Торрент скачан:23 раза
Скачать  

05-03-2019 10:39 Вакханалия Скачать торрент  

Вакханалия / BacchanaliaГод выпуска: 2017
Страна: США
Жанр: Ужасы, комедия
Продолжительность: 01:42:24
Перевод: Любительский (многоголосый) | "Синема УС"
Субтитры: отсутствуют

Режиссер: Гари Мейер

rating

В ролях:

Эдмунд Дигби-Джонс, Кайл Колдервуд, Мариана Пеньяльва, Люсинда Родс-Флаэрти, Антуан Мартин, Андреа Катоцци, Катажина Колечек, Миглен Миртчев, Ким Сёндерхолм, Джонатан Кристофер Дункан

Описание:

Обычный отдых в выходные превратился в странную вечеринку, на которой люди становятся сексуально озабоченными и безудержно танцуют. Это безумие повторяется каждую ночь и что же сможет положить ему конец?

Качество: WEB-DL 720p
Формат: MKV

Видео: h.264,5 373 kb/s, 1280x530
Аудио#1: Русский, (AC3, 2 ch, 384 Кбит/с)
скриншот  скриншот  скриншот  

Общее
Уникальный идентификатор : 250828655460458343070277707428740497406 (0xBCB3D7833B02431BB98DF99119487FFE)
Полное имя : D:\Bacchanalia.2018.P.WEB-DL.72Op_KOSHARA.mkv
Формат : Matroska
Версия формата : Version 2
Размер файла : 4,12 Гбайт
Продолжительность : 1 ч. 42 м.
Режим общего битрейта : Переменный
Общий поток : 5759 Кбит/сек
Дата кодирования : UTC 2019-03-04 20:24:51
Программа кодирования : mkvmerge v8.3.0 ('Over the Horizon') 64bit
Библиотека кодирования : libebml v1.3.1 + libmatroska v1.4.2

Видео
Идентификатор : 1
Формат : AVC
Формат/Информация : Advanced Video Codec
Профиль формата : High@L4.1
Параметр CABAC формата : Да
Параметр RefFrames формата : 4 кадра
Идентификатор кодека : V_MPEG4/ISO/AVC
Продолжительность : 1 ч. 42 м.
Вид битрейта : Переменный
Битрейт : 5373 Кбит/сек
Максимальный битрейт : 6000 Кбит/сек
Ширина : 1280 пикселей
Высота : 530 пикселей
Соотношение сторон : 2,40:1
Режим частоты кадров : Постоянный
Частота кадров : 23,976 (24000/1001) кадра/сек
Стандарт вещания : Component
Цветовое пространство : YUV
Субдискретизация насыщенности : 4:2:0
Битовая глубина : 8 бит
Тип развёртки : Прогрессивная
Бит/(Пиксели*Кадры) : 0.323
Размер потока : 3,76 Гбайт (91%)
Default : Да
Forced : Нет
Цветовой диапазон : Limited
Основные цвета : BT.709
Характеристики трансфера : BT.709
Коэффициенты матрицы : BT.709

Аудио
Идентификатор : 2
Формат : AC-3
Формат/Информация : Audio Coding 3
Расширение режима : CM (complete main)
Параметр Endianness формата : Big
Идентификатор кодека : A_AC3
Продолжительность : 1 ч. 42 м.
Вид битрейта : Постоянный
Битрейт : 384 Кбит/сек
Каналы : 2 канала
Расположение каналов : Front: L R
Частота : 48,0 КГц
Частота кадров : 31,250 кадров/сек (1536 spf)
Метод сжатия : С потерями
Размер потока : 281 Мбайт (7%)
Default : Да
Forced : Нет

pb.wtf



Скачать Вакханалия через торрент https://b.radikal.ru/b43/1903/a2/0b98d725fc5b.jpg Скачать фильм Вакханалия через торрент бесплантно в хорошем качестве Описание: Обычный отдых в выходные превратился в странную вечеринку, на которой люди становятся сексуально озабоченными и безудержно ... 10 10 3
Торрент: Зарегистрирован [2019-03-05 10:39] · скачан: 23 раз
Статус: T временная
Размер: 4.12 GB
Как cкачать? Как скачать Вакханалия через торрент | qTorrent

% Раздел Тема Автор DL S | L
Мультфильмы / Cartoons [ 1.53 GB ] Куноити 2: Падение Shrinemaiden/Kunoichi 2: Fall of the Shrinemaiden / Beastly Вакханалия/Beastly Bacchanalia [2015-2016Anal sex Group Sex Fantasy Mystic Rape Demons DPHDRip 720p] DJASFUL Скачать
4 | 0
T Фильмы (мультфильмы) cо спонсором показа (Новинки AVI/MKV) [ 1.37 GB ] Вакханалия / Bacchanalia [2017 WEB-DLRip] MVO ["Синема УС"] bober100 Скачать
1 | 0

28-11-2019 20:33  

Отключить всю рекламу на сайте

    Дорогой пользователь! Огромная просьба, поблагодарите релизера, оцените раздачу и оставьте свои комментарий, если Вы скачали Вакханалия через торрент бесплатно! Внесите свою лепту в развитие PiratBit!
    Комментировать посты могут только пользователи прошедшие не сложную регистрацию
    Показать сообщения:    

    Вакханалия через торрент
    Скачать бесплатно Вакханалия
    Вакханалия скачать торрент
    Вакханалия смотреть онлайн
    Cкачать фильм Вакханалия бесплатно
    Вакханалия скачать торрент в хорошем качестве
    Вакханалия смотреть онлайн бесплатно в хорошем качестве


    Вы не можете начинать темы
    Вы не можете отвечать на сообщения
    Вы не можете редактировать свои сообщения
    Вы не можете удалять свои сообщения
    Вы не можете голосовать в опросах
    Вы не можете прикреплять файлы к сообщениям
    Вы можете скачивать файлы