Ссылка на приватное зеркало всего за 1$. Внимание количество ограничено!!!

OK

1+1

iTunes

мы

OK

1

WEB-DLRip

Джокер

Пифагор

Ведьмак / The Witcher сериал

iTunes

ПШазам

ОК

Оно 2

iTunes

30
pack

Вам бонус

ВАЖНО

!!Акция!!

Alien_RageХит недели

RePack

Resident Evil 21

ИГРА 18+

pack

RePack

jed

RePack

fifa19

RePack

Assassins Creed: Odyssey

RePack

NEED FOR SPEED™ PAYBACK

4 сезон

9 сезон

Бесстыжие 9 сезон

Все сериалы

все сериалы на PB.wtf

RePack

FAR CRY 5
  

Гудлэнд / Goodland (Джош Док) [2017, Триллер, криминал, детектив, WEB-DL 720p] MVO ["Синема УС"] pb.wtf

Гудлэнд через торрент pb.wtf

Размер: 3.45 GB | Добавлен: 10 мес. назад | Торрент скачан:54 раза
Скачать  

05-03-2019 10:54 Гудлэнд Скачать торрент  

Гудлэнд / GoodlandГод выпуска: 2017
Страна: США
Жанр: Триллер, криминал, детектив
Продолжительность: 01:26:38
Перевод: Любительский (многоголосый) | "Синема УС"
Субтитры: отсутствуют

Режиссер: Джош Док

rating

В ролях:

Мэтт Уайсс, Синнамон Шульц, Сара Кэролинн Кеннеди, Джейсон Кертис Миллер, Кип Нивен, Крис Билсма, Уолтер Коппэдж, Рик Фолтен, Брайан Хутер, Сэм Джонс

Описание:

В поле рядом с маленьким городком Гудлэнд находят труп сезонного рабочего, который попал под комбайн. С первого взгляда, всё похоже на обычный несчастный случай, однако интуиция подсказывает шерифу, что это случилось не просто так и как-то связано с недавними таинственными событиями в городе.

Качество: WEB-DL 720p
Формат: MKV

Видео: h.264,5 310 Кбит/с, 1280x538
Аудио#1: Русский, (AC3, 2 ch, 384 Кбит/с)
скриншот  скриншот  скриншот  

Общее
Уникальный идентификатор : 179716123771164531278237289722109607225 (0x873411014B7F9D70BCEB85A1E3A9BD39)
Полное имя : D:\Goodland.2018.P.WEB-DL.72Op.mkv
Формат : Matroska
Версия формата : Version 2
Размер файла : 3,45 Гбайт
Продолжительность : 1 ч. 26 м.
Режим общего битрейта : Переменный
Общий поток : 5696 Кбит/сек
Дата кодирования : UTC 2019-03-04 17:02:49
Программа кодирования : mkvmerge v8.3.0 ('Over the Horizon') 64bit
Библиотека кодирования : libebml v1.3.1 + libmatroska v1.4.2

Видео
Идентификатор : 1
Формат : AVC
Формат/Информация : Advanced Video Codec
Профиль формата : High@L4.1
Параметр CABAC формата : Да
Параметр RefFrames формата : 4 кадра
Идентификатор кодека : V_MPEG4/ISO/AVC
Продолжительность : 1 ч. 26 м.
Вид битрейта : Переменный
Битрейт : 5310 Кбит/сек
Максимальный битрейт : 6000 Кбит/сек
Ширина : 1280 пикселей
Высота : 538 пикселей
Соотношение сторон : 2,40:1
Режим частоты кадров : Постоянный
Частота кадров : 23,976 (24000/1001) кадра/сек
Стандарт вещания : Component
Цветовое пространство : YUV
Субдискретизация насыщенности : 4:2:0
Битовая глубина : 8 бит
Тип развёртки : Прогрессивная
Бит/(Пиксели*Кадры) : 0.315
Размер потока : 3,15 Гбайт (91%)
Default : Да
Forced : Нет
Цветовой диапазон : Limited
Основные цвета : BT.709
Характеристики трансфера : BT.709
Коэффициенты матрицы : BT.709

Аудио
Идентификатор : 2
Формат : AC-3
Формат/Информация : Audio Coding 3
Расширение режима : CM (complete main)
Параметр Endianness формата : Big
Идентификатор кодека : A_AC3
Продолжительность : 1 ч. 26 м.
Вид битрейта : Постоянный
Битрейт : 384 Кбит/сек
Каналы : 2 канала
Расположение каналов : Front: L R
Частота : 48,0 КГц
Частота кадров : 31,250 кадров/сек (1536 spf)
Метод сжатия : С потерями
Размер потока : 238 Мбайт (7%)
Default : Да
Forced : Нет

pb.wtf



Скачать Гудлэнд через торрент https://a.radikal.ru/a42/1903/08/bb4bf437f616.jpg Скачать фильм Гудлэнд через торрент бесплантно в хорошем качестве Описание: В поле рядом с маленьким городком Гудлэнд находят труп сезонного рабочего, который попал под комбайн. С первого взгляда, всё ... 10 10 4
Торрент: Зарегистрирован [2019-03-05 10:54] · скачан: 54 раз
Статус: T временная
Размер: 3.45 GB
Как cкачать? Как скачать Гудлэнд через торрент | qTorrent

% Раздел Тема Автор DL S | L
T Фильмы (мультфильмы) cо спонсором показа (Новинки AVI/MKV) [ 1.36 GB ] Гудлэнд / Goodland [2017 WEB-DLRip] MVO ["Синема УС"] bober100 Скачать
1 | 0

28-11-2019 20:33  

Отключить всю рекламу на сайте

    Дорогой пользователь! Огромная просьба, поблагодарите релизера, оцените раздачу и оставьте свои комментарий, если Вы скачали Гудлэнд через торрент бесплатно! Внесите свою лепту в развитие PiratBit!
    Комментировать посты могут только пользователи прошедшие не сложную регистрацию
    Показать сообщения:    

    Гудлэнд через торрент
    Скачать бесплатно Гудлэнд
    Гудлэнд скачать торрент
    Гудлэнд смотреть онлайн
    Cкачать фильм Гудлэнд бесплатно
    Гудлэнд скачать торрент в хорошем качестве
    Гудлэнд смотреть онлайн бесплатно в хорошем качестве


    Вы не можете начинать темы
    Вы не можете отвечать на сообщения
    Вы не можете редактировать свои сообщения
    Вы не можете удалять свои сообщения
    Вы не можете голосовать в опросах
    Вы не можете прикреплять файлы к сообщениям
    Вы можете скачивать файлы