Ссылка на приватное зеркало нашего сайта всего за 1$. Внимание количество ограничено!!!

2 сезон

iTunes

1 сезон

1

2 сезон

2 сезон

iTunes

1 сезон

RePack

30

Ultimate

ВАЖНО

ИГРА 18+

pack

RePack

MK11
pack

Забери бонус

RePack

jed

!!Акция!!

Alien_Rage

RePack

fifa19

RePack

Assassins Creed: Odyssey

RePack

NEED FOR SPEED™ PAYBACK

4 сезон

9 сезон

Бесстыжие 9 сезон

Все сериалы

все сериалы на PB.wtf

RePack

FAR CRY 5
  

Ханна / Hanna / Сезон: 1 / Серии 1-8 из 8 (Сара Адина, Андерс Энгстрем, Джон Джонс) [2019, Боевик, драма, WEB-DL 1080p] [MVO] (Lostfilm) pb.wtf

Ханна через торрент pb.wtf

Размер: 23.67 GB | Добавлен: 1 год 3 мес. назад | Торрент скачан:30 раз
Скачать  

05-03-2019 11:42 Ханна Скачать торрент  

Ханна / Hanna

Год выпуска: 2019
Жанр: Боевик, драма
Страна: США / Amazon Studios, NBC Universal International, Tomorrow Studios, Working Title Television
Продолжительность: 1 x ~ 00:50:00
Перевод: Профессиональный (многоголосый, закадровый) LostFilm
Субтитры: английские

Режиссер: Сара Адина, Андерс Энгстрем, Джон Джонс

В ролях: Эсме Крид-Майлс, Мирей Инос, Юэль Киннаман, Фелисьен Джаттнер, Халид Абдалла, Кемаал Дин-Эллис, Фалдут Шарма, Бенно Фюрман

О фильме: 18-летняя Ханна всю жизнь прожила в лесах Северной Польши, где её с юных лет тренировал Эрик, прожженный наёмник и старый солдат. Изолированный от цивилизации, он обучил Ханну всем возможным методам выживания. Эрик хотел защитить её от остального мира, но сама Ханна очень хочет узнать тайну своего происхождения.

ratingскриншот  

Релиз - скриншот  

Качество: WEB-DL 1080p
Формат: MKV
Видео: H.264/AVC, 1920x1080p (1.78:1), 23.976 fps, ~7454 kbps, ~0.15 bit/pixel
Аудио 1: Русский E-AC3/DD+ 5.1, 48 kHz, 640 kbps
Аудио 2: Английский E-AC3/DD+ 5.1, 48 kHz, 640 kbps
скриншот  скриншот  скриншот  
General
Unique ID : 23834219107871042867241640929215011144 (0x11EE4DBA921BD89586F9FE6801FA5948)
Complete name : Hanna.S01E01.Forest.1080p.AMZN.WEB-DL.H.264.RUS.LF.DDP5.1-EniaHD.mkv
Format : Matroska
Format version : Version 4 / Version 2
File size : 2.94 GiB
Duration : 48 min 13 s
Overall bit rate : 8 737 kb/s
Movie name : Hanna, Season 1 / Forest
Track name/Position : 1
Description : In a covert Romanian facility, Erik Heller evades security to rescue baby Hanna. 15 years on, father and daughter live deep in the Polish forest. Erik has trained Hanna to be an incredible killer and hunter. Yet, keen to grow beyond the boundaries of her isolated world, she begins to venture away from home. This attracts the attention of CIA agent Marissa Wiegler, who has hunted Hanna since birth.
Released date : UTC 2019-02-03 12:00:00
Writing application : mkvmerge v30.1.0 ('Forever And More') 64-bit
Writing library : libebml v1.3.6 + libmatroska v1.4.9
Copyright : aXR1bmVzdHZAZW5pYWhkLmNvbQ==
Cover : Yes
Attachments : small_cover.jpg / cover.jpg

Video
ID : 1
Format : AVC
Format/Info : Advanced Video Codec
Format profile : High@L4
Format settings : CABAC / 4 Ref Frames
Format settings, CABAC : Yes
Format settings, RefFrames : 4 frames
Codec ID : V_MPEG4/ISO/AVC
Duration : 48 min 13 s
Bit rate mode : Constant
Bit rate : 7 454 kb/s
Nominal bit rate : 10 000 kb/s
Width : 1 920 pixels
Height : 1 080 pixels
Display aspect ratio : 16:9
Frame rate mode : Constant
Frame rate : 23.976 (24000/1001) FPS
Color space : YUV
Chroma subsampling : 4:2:0
Bit depth : 8 bits
Scan type : Progressive
Bits/(Pixel*Frame) : 0.150
Stream size : 2.51 GiB (85%)
Language : English
Default : Yes
Forced : No
Color range : Limited
Color primaries : BT.709
Transfer characteristics : BT.709
Matrix coefficients : BT.709

Audio #1
ID : 2
Format : E-AC-3
Format/Info : Enhanced Audio Coding 3
Format settings, Endianness : Big
Codec ID : A_EAC3
Duration : 48 min 13 s
Bit rate mode : Constant
Bit rate : 640 kb/s
Channel(s) : 6 channels
Channel positions : Front: L C R, Side: L R, LFE
Sampling rate : 48.0 kHz
Frame rate : 187.500 FPS (256 SPF)
Compression mode : Lossy
Stream size : 221 MiB (7%)
Title : E-AC3 5.1 @ 640 kbps - MVO, Lostfilm
Language : Russian
Service kind : Complete Main
Default : Yes
Forced : No
Released date : UTC 2019-03-04 20:11:45

Audio #2
ID : 3
Format : E-AC-3
Format/Info : Enhanced Audio Coding 3
Format settings, Endianness : Big
Codec ID : A_EAC3
Duration : 48 min 13 s
Bit rate mode : Constant
Bit rate : 640 kb/s
Channel(s) : 6 channels
Channel positions : Front: L C R, Side: L R, LFE
Sampling rate : 48.0 kHz
Frame rate : 187.500 FPS (256 SPF)
Compression mode : Lossy
Stream size : 221 MiB (7%)
Title : E-AC3 5.1 @ 640 kbps - Original
Language : English
Service kind : Complete Main
Default : No
Forced : No

Text
ID : 4
Format : UTF-8
Codec ID : S_TEXT/UTF8
Codec ID/Info : UTF-8 Plain Text
Duration : 47 min 26 s
Bit rate : 34 b/s
Count of elements : 560
Stream size : 12.0 KiB (0%)
Title : SDH
Language : English
Default : No
Forced : No

Menu
00:00:00.000 : en:Amazon Original
00:00:05.000 : en:A mission to retrieve precious cargo
00:04:47.000 : en:The hunter and the hunted
00:10:42.000 : en:Title Sequence
00:10:49.000 : en:Life lessons never stop
00:16:06.000 : en:Always questions but never answers
00:19:59.000 : en:Hanna's curiosity gets the best of her
00:26:21.000 : en:The line between secrets and lies
00:28:30.000 : en:Not all people are dangerous
00:32:35.000 : en:Arvo shows Hanna something amazing
00:35:16.000 : en:Hanna learns what she's been training for
00:38:27.000 : en:Government agencies investigate a red flag
00:40:25.000 : en:The plan is put into motion
00:46:28.000 : en:End Credits

Внимание! Раздача ведётся путём добавления новых серий; при каждом добавлении создаётся новый торрент. Чтобы начать докачку новой серии, пользователям необходимо сделать следующее:
(1) остановить скачивание,
(2) удалить старый торрент у себя из клиента (старые серии удалять не надо),
(3) скачать новый торрент и запустить его у себя в клиенте вместо старого, при этом указать клиенту путь в старую папку куда и должно происходить скачивание новых серий.
Ваш клиент при этом должен произвести хеширование (проверку) старой папки (если не производит сам - помогите ему сделать это), и будет докачивать только те серии которых у вас ещё нет. Старые серии при этом не удаляются, а продолжают раздаваться!
Eсли вы уже удалили старые серии, то предотвратить повторную закачку старых серий можно, отжав галочку в соответствующих местах при запуске нового торрента. По возможности, желательно не удалять старые серии как можно дольше чтобы релизёр не столько продолжал раздавать старые серии, а смог сконцентрироваться на новых.
pb.wtf



Скачать Ханна через торрент https://i110.fastpic.ru/big/2019/0211/56/b0f2915e043f9fd56cf13d3429155e56.jpg Скачать фильм Ханна через торрент бесплантно в хорошем качестве О фильме: 18-летняя Ханна всю жизнь прожила в лесах Северной Польши, где её с юных лет тренировал Эрик, прожженный наёмник и старый солдат. ... 10 10 1
Торрент: Зарегистрирован [2019-08-03 06:02] · скачан: 30 раз
Статус: √ проверено
Размер: 23.67 GB
Как cкачать? Как скачать Ханна через торрент | qTorrent

% Раздел Тема Автор DL S | L
Зарубежные сериалы [ 5.94 GB ] Ханна / Hanna / Сезон: 2 / Серии: 1-8 из 8 [2020 WEB-DLRip] MVO [LostFilm] bober100 Скачать
1 | 0
Зарубежные сериалы [ 671 MB ] Ханна / Hanna / Сезон: 2 / Серии: 1- из 8 [2020 WEB-DLRip] MVO [TVShows] bober100 Скачать
1 | 0
Зарубежные сериалы [ 42.05 GB ] Ханна / Hanna / Сезон: 2 / Серии: 1-8 из 8 [2020 UHD WEB-DL 2160p] 2xMVO [IdeaFilm HDRezka Studio] bober100 Скачать
1 | 0
Зарубежные сериалы [ 21.76 GB ] Ханна / Hanna / Сезон: 2 / Серии: 1-8 из 8 [2020 WEB-DL 1080p] MVO [HDRezka Studio] bober100 Скачать
1 | 0
Фильмы без перевода [ 21.24 GB ] Ханна / Hanna / Сезон: 2 / Серии 1-8 из 8 [2020 WEBRip 1080p] [Multi Subs] killermax2013 Скачать
1 | 0
Зарубежные сериалы [ 40.54 GB ] Ханна / Hanna / Сезон: 1 / Серии: 1-8 из 8 [2019 UHD WEBRip 2160p] MVO [LostFilm] bober100 Скачать
1 | 0
Зарубежные сериалы [ 11.52 GB ] Ханна / Hanna / Сезон: 1 / Серии: 1-8 из 8 [2019 WEB-DL 720p] MVO [TVShows] bober100 Скачать
1 | 0


Последний раз редактировалось: killermax2013 (2019-04-06 19:26), всего редактировалось 1 раз

28-11-2019 20:33  

Отключить всю рекламу на сайте

    Дорогой пользователь! Огромная просьба, поблагодарите релизера, оцените раздачу и оставьте свои комментарий, если Вы скачали Ханна через торрент бесплатно! Внесите свою лепту в развитие PiratBit!
    Комментировать посты могут только пользователи прошедшие не сложную регистрацию
    Показать сообщения:    

    Ханна через торрент
    Скачать бесплатно Ханна
    Ханна скачать торрент
    Ханна смотреть онлайн
    Cкачать фильм Ханна бесплатно
    Ханна скачать торрент в хорошем качестве
    Ханна смотреть онлайн бесплатно в хорошем качестве


    Вы не можете начинать темы
    Вы не можете отвечать на сообщения
    Вы не можете редактировать свои сообщения
    Вы не можете удалять свои сообщения
    Вы не можете голосовать в опросах
    Вы не можете прикреплять файлы к сообщениям
    Вы можете скачивать файлы