Ссылка на приватное зеркало нашего сайта всего за 1$. Внимание количество ограничено!!!

2 сезон

iTunes

1 сезон

1

2 сезон

2 сезон

iTunes

1 сезон

RePack

30

Новинка

ВАЖНО

ИГРА 18+

pack

RePack

MK11
pack

Забери бонус

RePack

jed

!!Акция!!

Alien_Rage

RePack

fifa19

RePack

Assassins Creed: Odyssey

RePack

NEED FOR SPEED™ PAYBACK

4 сезон

9 сезон

Бесстыжие 9 сезон

Все сериалы

все сериалы на PB.wtf

RePack

FAR CRY 5
  

Миллион мелочей / A Million Little Things / Сезон: 1 / Серии: 1-17 из 17 (Джеймс Гриффитс, Ричард Дж. Льюис, Зинга Стюарт) [2018, Драма, комедия, WEB-DL 720p] [MVO] (Jaskier) pb.wtf

Миллион мелочей через торрент pb.wtf

Размер: 14.51 GB | Добавлен: 1 год 8 мес. назад | Торрент скачан:11 раз
Скачать  

05-03-2019 15:50 Миллион мелочей Скачать торрент  

Миллион мелочей | A Million Little Things
Год выпуска: 2018
Страна: США
Жанр: Драма, комедия
Продолжительность: ~ 00:43:00
Перевод: Профессиональный (многоголосый закадровый) | Jaskier
Режиссёр: Джеймс Гриффитс, Ричард Дж. Льюис, Зинга Стюарт
В ролях: Дэвид Джинтоли, Лиззи Грин, Романи Малко, Эллисон Миллер, Джеймс Родэй, Стефани Зостак, Кристина Моусес, Чэнс Хурстфилд, Рон Ливингстон, Кристина Очоа и др.
Описание: В центре сюжета 8 друзей, один из которых решает покончить с собой. Остальные вдруг понимают, что надо что-то менять и начать жить по-настоящему. Смерть друга – напоминание, что нужно уметь смотреть на вещи с разных сторон.
rating

Качество: WEB-DL 720p
Формат: MKV
Видео: 1280x720 (16:9) | X264 | ~2500 kbps | 23.976 fps
Аудио 1: AC3, 48,0 КГц, 6 ch, 384 kbps - Rus
Аудио 2: AC3, 48,0 КГц, 6 ch, 384 kbps - Eng
Субтитры: английские
Переведено и озвучено студией JASKIER
Общее
Уникальный идентификатор : 251172645286689501176280829336829553012 (0xBCF617853DE8293AA642C2BFC51BE974)
Полное имя : H:\JASKiER\A Million Little Things. Season 1 (WEB-DL l 720p l Jaskier)\A.Million.Little.Things.S01E01.720p.WEB-DL.DD5.1.H.264-Jaskier.mkv
Формат : Matroska
Версия формата : Version 2
Размер файла : 1013 Мбайт
Продолжительность : 43 м. 1 с.
Общий поток : 3290 Кбит/сек
Дата кодирования : UTC 2018-09-29 18:52:35
Программа кодирования : mkvmerge v7.8.0 ('River Man') 32bit built on Apr 3 2015 12:11:22
Библиотека кодирования : libebml v1.3.1 + libmatroska v1.4.2

Видео
Идентификатор : 1
Формат : AVC
Формат/Информация : Advanced Video Codec
Профиль формата : High@L3.1
Настройки формата : CABAC / 5 Ref Frames
Параметр CABAC формата : Да
Параметр RefFrames формата : 5 кадров
Идентификатор кодека : V_MPEG4/ISO/AVC
Продолжительность : 43 м. 1 с.
Битрейт : 2457 Кбит/сек
Ширина : 1280 пикселей
Высота : 720 пикселей
Соотношение сторон : 16:9
Режим частоты кадров : Постоянный
Частота кадров : 23,976 (24000/1001) кадра/сек
Цветовое пространство : YUV
Субдискретизация насыщенности : 4:2:0
Битовая глубина : 8 бит
Тип развёртки : Прогрессивная
Бит/(Пиксели*Кадры) : 0.111
Размер потока : 756 Мбайт (75%)
Язык : English
Default : Да
Forced : Нет
Цветовой диапазон : Limited
Основные цвета : BT.709
Характеристики трансфера : BT.709
Коэффициенты матрицы : BT.709

Аудио #1
Идентификатор : 2
Формат : AC-3
Формат/Информация : Audio Coding 3
Коммерческое название : Dolby Digital
Идентификатор кодека : A_AC3
Продолжительность : 43 м. 1 с.
Вид битрейта : Постоянный
Битрейт : 384 Кбит/сек
Каналы : 6 каналов
Channel layout : L R C LFE Ls Rs
Частота : 48,0 КГц
Частота кадров : 31,250 кадров/сек (1536 SPF)
Битовая глубина : 16 бит
Метод сжатия : С потерями
Размер потока : 118 Мбайт (12%)
Заголовок : Jaskier
Язык : Russian
ServiceKind/String : Complete Main
Default : Да
Forced : Нет

Аудио #2
Идентификатор : 3
Формат : AC-3
Формат/Информация : Audio Coding 3
Коммерческое название : Dolby Digital
Идентификатор кодека : A_AC3
Продолжительность : 43 м. 1 с.
Вид битрейта : Постоянный
Битрейт : 384 Кбит/сек
Каналы : 6 каналов
Channel layout : L R C LFE Ls Rs
Частота : 48,0 КГц
Частота кадров : 31,250 кадров/сек (1536 SPF)
Битовая глубина : 16 бит
Метод сжатия : С потерями
Размер потока : 118 Мбайт (12%)
Язык : English
ServiceKind/String : Complete Main
Default : Нет
Forced : Нет

Текст
Идентификатор : 4
Формат : UTF-8
Идентификатор кодека : S_TEXT/UTF8
Идентификатор кодека/Информация : UTF-8 Plain Text
Язык : English
Default : Нет
Forced : Нет
скриншот  скриншот  скриншот  
pb.wtf



Скачать Миллион мелочей через торрент http://img11.lostpic.net/2018/09/28/6fb886aea65906981dc3e2d4e616731e.png Скачать фильм Миллион мелочей через торрент бесплантно в хорошем качестве Описание: В центре сюжета 8 друзей, один из которых решает покончить с собой. Остальные вдруг понимают, что надо что-то менять и начать ... 5 10 1
Торрент: Зарегистрирован [2019-03-05 15:50] · скачан: 11 раз
Статус: √ проверено
Размер: 14.51 GB
Как cкачать? Как скачать Миллион мелочей через торрент | qTorrent

% Раздел Тема Автор DL S | L
Зарубежные сериалы [ 33.43 GB ] Миллион чей / A Million Little Things / Сезон: 1 / Серии: 1-17 из 17 [2018 WEB-DL 1080p] [MVO] killermax2013 Скачать
1 | 0

28-11-2019 20:33  

Отключить всю рекламу на сайте

    Дорогой пользователь! Огромная просьба, поблагодарите релизера, оцените раздачу и оставьте свои комментарий, если Вы скачали Миллион мелочей через торрент бесплатно! Внесите свою лепту в развитие PiratBit!
    Комментировать посты могут только пользователи прошедшие не сложную регистрацию
    Показать сообщения:    

    Миллион мелочей через торрент
    Скачать бесплатно Миллион мелочей
    Миллион мелочей скачать торрент
    Миллион мелочей смотреть онлайн
    Cкачать фильм Миллион мелочей бесплатно
    Миллион мелочей скачать торрент в хорошем качестве
    Миллион мелочей смотреть онлайн бесплатно в хорошем качестве


    Вы не можете начинать темы
    Вы не можете отвечать на сообщения
    Вы не можете редактировать свои сообщения
    Вы не можете удалять свои сообщения
    Вы не можете голосовать в опросах
    Вы не можете прикреплять файлы к сообщениям
    Вы можете скачивать файлы