Ссылка на приватное зеркало нашего сайта всего за 1$. Внимание количество ограничено!!!

2 сезон

iTunes

1 сезон

1

2 сезон

2 сезон

iTunes

1 сезон

RePack

30

Новинка

ВАЖНО

ИГРА 18+

pack

RePack

MK11
pack

Забери бонус

RePack

jed

!!Акция!!

Alien_Rage

RePack

fifa19

RePack

Assassins Creed: Odyssey

RePack

NEED FOR SPEED™ PAYBACK

4 сезон

9 сезон

Бесстыжие 9 сезон

Все сериалы

все сериалы на PB.wtf

RePack

FAR CRY 5
  

Британия / Britannia / Сезон: 1 / Серии: 1-9 из 9 (Люк Уотсон, Роб Сэвадж, Шери Фоксон) [2017, фэнтези, боевик, драма, HDRip] [MVO] (TVShows) pb.wtf

Британия через торрент pb.wtf

Размер: 7.03 GB | Добавлен: 1 год 8 мес. назад | Торрент скачан:68 раз
Скачать  

05-03-2019 15:55 Британия Скачать торрент  

Британия | Britannia
Год выпуска: 2017
Страна: Великобритания, США
Жанр: фэнтези, боевик, драма
Продолжительность: ~ 00:45:00

Перевод: Профессиональный (многоголосый закадровый) TVShows

Режиссёр: Люк Уотсон, Роб Сэвадж, Шери Фоксон

В ролях: Элинор Вортингтон-Кокс, Дэвид Моррисси, Келли Райлли, Николай Ли Каас, Лиана Корнелл, Гершвин Эсташ мл., Макензи Крук, Бэрри Уорд, Стэнли Вебер, Джо Армстронг и др.
Описание: События сериала происходят в начале новой эры, когда Британия была населена очень воинственными кельтскими племенами, которые были не готовы перейти под управление иноземцев, пришедших с далекого юга. Во время римского завоевания Британии две враждующие кельтские воительницы — Керра и Антедия — вынуждены объединить силы, чтобы дать отпор римским легионам под предводительством Авла Плавтия.


Качество: HDRip (BDRip 720p TVShows)
Формат: AVI
Видео: XVID, 720x400, 25.000 fps, 2000 kbps avg, 0.278 bit/pixel
Аудио Rus: AC3, 48.0 KHz, 6 channels, 384 kbps
Субтитры: нет
General
Complete name : G:\Британия (Сезон 1) TVShows\Britannia.S01E01.HDRip.RGzsRutracker.Celta88.avi
Format : AVI
Format/Info : Audio Video Interleave
File size : 1.16 GiB
Duration : 1 h 9 min
Overall bit rate : 2 394 kb/s
Writing application : VirtualDubMod 1.5.10.3 | www.virtualdub-fr.org || (build 2550/release)
Writing library : VirtualDubMod build 2550/release

Video
ID : 0
Format : MPEG-4 Visual
Format profile : Advanced Simple@L5
Format settings, BVOP : 1
Format settings, QPel : No
Format settings, GMC : No warppoints
Format settings, Matrix : Custom
Codec ID : XVID
Codec ID/Hint : XviD
Duration : 1 h 9 min
Bit rate : 2 000 kb/s
Width : 720 pixels
Height : 400 pixels
Display aspect ratio : 16:9
Frame rate : 25.000 FPS
Color space : YUV
Chroma subsampling : 4:2:0
Bit depth : 8 bits
Scan type : Progressive
Compression mode : Lossy
Bits/(Pixel*Frame) : 0.278
Stream size : 996 MiB (84%)
Writing library : XviD 73

Audio
ID : 1
Format : AC-3
Format/Info : Audio Coding 3
Mode extension : CM (complete main)
Format settings, Endianness : Big
Codec ID : 2000
Duration : 1 h 9 min
Bit rate mode : Constant
Bit rate : 384 kb/s
Channel(s) : 6 channels
Channel positions : Front: L C R, Side: L R, LFE
Sampling rate : 48.0 kHz
Frame rate : 31.250 FPS (1536 spf)
Bit depth : 16 bits
Compression mode : Lossy
Stream size : 191 MiB (16%)
Alignment : Split accross interleaves
Interleave, duration : 40 ms (1.00 video frame)
Interleave, preload duratio : 500 ms
скриншот  скриншот  скриншот  
pb.wtf



Скачать Британия через торрент https://i110.fastpic.ru/big/2019/0305/58/4586c8c87ff7020932945541b7b42358.png Скачать фильм Британия через торрент бесплантно в хорошем качестве Описание: События сериала происходят в начале новой эры, когда Британия была населена очень воинственными кельтскими племенами, которые ... 10 10 1
Торрент: Зарегистрирован [2019-03-05 15:55] · скачан: 68 раз
Статус: √ проверено
Размер: 7.03 GB
Как cкачать? Как скачать Британия через торрент | qTorrent

% Раздел Тема Автор DL S | L
Зарубежные сериалы [ 34.45 GB ] Британия / Britannia / Сезон: 1 / Серии: 1-9 из 9 [2017 WEBRip 1080p] [MVO] killermax2013 Скачать
1 | 0
Зарубежные сериалы [ 6.19 GB ] Британия / Britannia / Сезон: 1 / Серии: 1-9 из 9 [2018 WEB-DLRip] MVO [SDI Media] bober100 Скачать
6 | 1
Зарубежные сериалы [ 38.81 GB ] Британия / Britannia / Сезон: 1 / Серии: 1-9 из 9 [2018 WEB-DL 1080p] 4xMVO [Jaskier AlexFilm AMS NewStudio] bober100 Скачать
1 | 0
Зарубежные сериалы [ 32.81 GB ] Британия / Britannia / 1 сезон / 1-9 серия из 9 [2018 BDRip] [1080p] [MVO] killermax2013 Скачать
1 | 0
Зарубежные сериалы [ 13.96 GB ] Британия / Britannia / 1 сезон / 1-9 серия из 9 [2018 WEB-DL 720p] [MVO] killermax2013 Скачать
1 | 0
Зарубежные сериалы [ 12.45 GB ] Британия / Britannia / Сезон: 1 / Серии: 1-9 из 9 [2017 WEB-DL 720p] MVO [Jaskier] bober100 Скачать
1 | 0
Зарубежные сериалы [ 33.89 GB ] Британия / Britannia / Сезон: 1 / Серии: 1-9 из 9 [2017 WEB-DL 1080p] MVO [Jaskier] bober100 Скачать
1 | 0

28-11-2019 20:33  

Отключить всю рекламу на сайте

    Дорогой пользователь! Огромная просьба, поблагодарите релизера, оцените раздачу и оставьте свои комментарий, если Вы скачали Британия через торрент бесплатно! Внесите свою лепту в развитие PiratBit!
    Комментировать посты могут только пользователи прошедшие не сложную регистрацию
    Показать сообщения:    

    Британия через торрент
    Скачать бесплатно Британия
    Британия скачать торрент
    Британия смотреть онлайн
    Cкачать фильм Британия бесплатно
    Британия скачать торрент в хорошем качестве
    Британия смотреть онлайн бесплатно в хорошем качестве


    Вы не можете начинать темы
    Вы не можете отвечать на сообщения
    Вы не можете редактировать свои сообщения
    Вы не можете удалять свои сообщения
    Вы не можете голосовать в опросах
    Вы не можете прикреплять файлы к сообщениям
    Вы можете скачивать файлы