Доктор Стрэндж

Лицензия

Добыча

Дубляж

Уэнсдэй

1 сезон

Тор

Дубляж

В эфире

Дубляж

Там, где раки поют

MVO

Властелин колец

1 сезон

Deluxe

pack

Рекомендуем

30

Пиратка

ВАЖНО

ВАЖНО

Ghostwire

Пиратка

jed

RePack

nioh2

RePack

RDR2

RePack

NEED FOR SPEED™ PAYBACK

RePack

скачать торрент

Кинопоиск HD

Острые козырьки 6 сезон

6 сезон

FAR CRY 6

RePack

скачать торрент

Лицензия

скачать торрент

MVO

1

1 сезон

скачать торрент

1 сезон

скачать торрент

Лицензия

  

Хочу в тюрьму (Алла Сурикова) [1998, комедия, DVD5]

Смотреть онлайн | Скачать   

05-03-2019 16:08 Хочу в тюрьму Скачать торрент  

Хочу в тюрьму Страна: Россия
Жанр: комедия
Год выпуска: 1998
Продолжительность: 01:33:59
Перевод: Не требуется
Субтитры: нет
Оригинальная аудиодорожка: русская

Режиссер: Алла Сурикова

В ролях: Владимир Ильин, Наталья Гундарева, Алла Клюка, Сергей Баталов, Борис Щербаков, Кира Сурикова, Олег Бочаров, Наталья Коренченко, Егор Акмен, Игорь Мигунов

Описание: Россия всегда была богата талантливыми людьми. В большинстве своем они отличались редкостным простодушием. Вот и Семен Лямкин, разработчик и конструктор технического чуда в виде канареечного «Запорожца» легко обгоняющего «Мерседесы» и плавающего не хуже «моторки» попал в неприятную историю.
Когда с его помощью один предприимчивый «работодатель» ограбил банк, Семен не стал дожидаться ареста, а, сев в «Запорожец» отправился в тюрьму. Но не российскую, а. .. голландскую, поскольку, по слухам, за бугром кутузки намного комфортабельнее.



Дополнительные материалы: Киноролик, видеоролик, съемки фильма

Меню: есть, статичное

Тип релиза: DVD5
Контейнер: DVD-Video

Видео: PAL 4:3 (720x576(0.439)) MPEG Video, 25,000 кадр/сек, 4554 Кбит/сек
Аудио: Russian (Dolby AC-3, 6 ch) 384 Кбит/сек, 48.0 КГц
Аудио 2: Russian (Dolby AC-3, 2 ch) 192 Кбит/сек, 48.0 КГц
Общее
Полное имя : HOCHU V TYRMU [torrents.ru]\VIDEO_TS\VTS_01_1.VOB
Формат : MPEG-PS
Размер файла : 1024 Мбайт
Продолжительность : 27 м. 21 с.
Режим общего битрейта : Переменный
Общий поток : 5234 Кбит/сек

Видео
Идентификатор : 224 (0xE0)
Формат : MPEG Video
Версия формата : Version 2
Профиль формата : [email protected]
Параметр BVOP формата : Да
Параметр матрицы формата : По умолчанию
Параметр GOP формата : M=5, N=26
Структура изображения : Field
Продолжительность : 27 м. 21 с.
Вид битрейта : Переменный
Битрейт : 4554 Кбит/сек
Максимальный битрейт : 8500 Кбит/сек
Ширина : 720 пикселей
Высота : 576 пикселей
Соотношение сторон : 4:3
Частота кадров : 25,000 кадров/сек
Стандарт вещания : PAL
Цветовое пространство : YUV
Субдискретизация насыщенности : 4:2:0
Битовая глубина : 8 бит
Тип развёртки : Чересстрочная
Порядок развёртки : Верхнее поле первое
Метод сжатия : С потерями
Бит/(Пиксели*Кадры) : 0.439
Временной код первого кадра : 00:02:01:18
Оригинал временного кода : Group of pictures header
GOP, открыто/закрыто : Открыто
Размер потока : 891 Мбайт (87%)
Основные цвета : BT.601 PAL
Характеристики трансфера : BT.470 System B, BT.470 System G
Коэффициенты матрицы : BT.601

Аудио #1
Идентификатор : 189 (0xBD)-128 (0x80)
Формат : AC-3
Формат/Информация : Audio Coding 3
Параметр Endianness формата : Big
Режим смешивания : DVD-Video
Продолжительность : 27 м. 21 с.
Вид битрейта : Постоянный
Битрейт : 384 Кбит/сек
Каналы : 6 каналов
Расположение каналов : Front: L C R, Side: L R, LFE
Частота : 48,0 КГц
Частота кадров : 31,250 кадров/сек (1536 spf)
Битовая глубина : 16 бит
Метод сжатия : С потерями
Размер потока : 75,1 Мбайт (7%)
ServiceKind/String : Complete Main

Аудио #2
Идентификатор : 189 (0xBD)-129 (0x81)
Формат : AC-3
Формат/Информация : Audio Coding 3
Параметр Endianness формата : Big
Режим смешивания : DVD-Video
Продолжительность : 27 м. 21 с.
Вид битрейта : Постоянный
Битрейт : 192 Кбит/сек
Каналы : 2 канала
Расположение каналов : Front: L R
Частота : 48,0 КГц
Частота кадров : 31,250 кадров/сек (1536 spf)
Битовая глубина : 16 бит
Метод сжатия : С потерями
Размер потока : 37,6 Мбайт (4%)
ServiceKind/String : Complete Main
скриншот  скриншот  скриншот  
скриншот  скриншот  скриншот  



Скачать
Чтобы иметь возможность скачивать с Торрент Трекера, нужно Зарегистрироваться

Как скачивать  ·  Рейтинг и ограничения

28-11-2019 20:33  


Отключить вcю реклaмy на сайте, в т.ч. и в плеере онлайн просмотра!

    Дорогой пользователь! Огромная просьба, поблагодарите релизера, оцените раздачу и оставьте свои комментарий, если Вы скачали Хочу в тюрьму через торрент бесплатно!!
    Комментировать посты могут только пользователи прошедшие не сложную регистрацию
    Показать сообщения:    


    Хочу в тюрьму через торрент
    Скачать бесплатно Хочу в тюрьму
    Хочу в тюрьму скачать торрент
    Хочу в тюрьму смотреть онлайн
    Cкачать фильм Хочу в тюрьму бесплатно
    Хочу в тюрьму скачать торрент в хорошем качестве
    Хочу в тюрьму смотреть онлайн бесплатно в хорошем качестве
    Вы не можете начинать темы
    Вы не можете отвечать на сообщения
    Вы не можете редактировать свои сообщения
    Вы не можете удалять свои сообщения
    Вы не можете голосовать в опросах
    Вы не можете прикреплять файлы к сообщениям
    Вы не можете скачивать файлы
    Хочу в тюрьму [1998, комедия, DVD5] смотреть онлайн, скачать торрент picoco.icu