Ссылка на приватное зеркало нашего сайта всего за 1$. Внимание количество ограничено!!!

2 сезон

iTunes

1 сезон

1

2 сезон

2 сезон

iTunes

1 сезон

RePack

30

Новинка

ВАЖНО

ИГРА 18+

pack

RePack

MK11
pack

Забери бонус

RePack

jed

!!Акция!!

Alien_Rage

RePack

fifa19

RePack

Assassins Creed: Odyssey

RePack

NEED FOR SPEED™ PAYBACK

4 сезон

9 сезон

Бесстыжие 9 сезон

Все сериалы

все сериалы на PB.wtf

RePack

FAR CRY 5
  

Тени / Umbre / Сезон: 1 / Серии: 1-8 из 8 (Богдан Мирица, Игорь Кобылянский) [2014, триллер, драма, криминал, WEBRip] [MVO] (Spike) pb.wtf

Тени через торрент pb.wtf

Размер: 4.47 GB | Добавлен: 1 год 8 мес. назад | Торрент скачан:17 раз
Скачать  

05-03-2019 16:15 Тени Скачать торрент  

Тени | Umbre
Год выпуска: 2014
Страна: США
Жанр: триллер, драма, криминал
Продолжительность: ~ 00:45:00

Перевод: Профессиональный (многоголосый закадровый) Spike

Режиссёр: Богдан Мирица, Игорь Кобылянский

В ролях: Сербан Павлу, Мария Обретен, Андриа Василь, Габриэль Уйян, Серджиу Костаке, Дору Ана, Штефан Вельничиук, Сорин Косис и др.
Описание: Релу — семейный человек, у которого есть жена и двое детей. Для его семьи, Релу обычный водитель такси. Никто и не подозревает, что он ведет двойную жизнь. Релу работает коллектором местного гангстера. Ни один из двух миров (семья и мафия) не знает о существовании другого. Ему удается держать все под контролем, но это не на долго.
После случайного убийства человека, он пытается выйти из преступного мира, но он не может найти дорогу обратно. День за днем, из-за секретов, жизнь продолжает становиться все более гнетущей, а ложь постепенно выходит на поверхность…
rating

Качество: WEBRip
Формат: AVI
Видео: XVID, 720x400, 25.000 fps, ~1558 kbps avg, ~0.21 bit/pixel
Аудио Rus: MP3, 48.0 KHz, 2 channels, 128 kbps
Аудио Rom: MP3, 48.0 KHz, 2 channels, 128 kbps
Субтитры: русские на не озвученный фрагмент 6 серии (Ольга Гатилина)

Реклама отсутствует
General
Complete name : D:\Сериалы\Тени (Сезон 1) Spike\Umbre.s01e01.avi
Format : AVI
Format/Info : Audio Video Interleave
File size : 595 MiB
Duration : 45 min 27 s
Overall bit rate : 1 830 kb/s
Writing application : VirtualDubMod 1.5.10.2 (build 2540/release)
Writing library : VirtualDubMod build 2540/release

Video
ID : 0
Format : MPEG-4 Visual
Format profile : Advanced Simple@L5
Format settings, BVOP : 1
Format settings, QPel : No
Format settings, GMC : No warppoints
Format settings, Matrix : Custom
Codec ID : XVID
Codec ID/Hint : XviD
Duration : 45 min 27 s
Bit rate : 1 559 kb/s
Width : 720 pixels
Height : 400 pixels
Display aspect ratio : 16:9
Frame rate : 25.000 FPS
Color space : YUV
Chroma subsampling : 4:2:0
Bit depth : 8 bits
Scan type : Progressive
Compression mode : Lossy
Bits/(Pixel*Frame) : 0.217
Stream size : 507 MiB (85%)
Writing library : XviD 73

Audio #1
ID : 1
Format : MPEG Audio
Format version : Version 1
Format profile : Layer 3
Mode : Joint stereo
Mode extension : MS Stereo
Codec ID : 55
Codec ID/Hint : MP3
Duration : 45 min 26 s
Bit rate mode : Constant
Bit rate : 128 kb/s
Channel(s) : 2 channels
Sampling rate : 48.0 kHz
Compression mode : Lossy
Stream size : 41.6 MiB (7%)
Alignment : Split accross interleaves
Interleave, duration : 40 ms (1.00 video frame)
Interleave, preload duratio : 500 ms

Audio #2
ID : 2
Format : MPEG Audio
Format version : Version 1
Format profile : Layer 3
Mode : Joint stereo
Mode extension : MS Stereo
Codec ID : 55
Codec ID/Hint : MP3
Duration : 45 min 26 s
Bit rate mode : Constant
Bit rate : 128 kb/s
Channel(s) : 2 channels
Sampling rate : 48.0 kHz
Compression mode : Lossy
Stream size : 41.6 MiB (7%)
Alignment : Split accross interleaves
Interleave, duration : 40 ms (1.00 video frame)
Interleave, preload duratio : 500 ms
скриншот  скриншот  скриншот  
Релиз от Hanzores
pb.wtf



Скачать Тени через торрент http://i5.imageban.ru/out/2018/05/27/13bc9630ee926b60780eb73b88920056.jpg Скачать фильм Тени через торрент бесплантно в хорошем качестве Описание: Релу — семейный человек, у которого есть жена и двое детей. Для его семьи, Релу обычный водитель такси. Никто и не подозревает, ... 5 10 1
Торрент: Зарегистрирован [2019-03-05 16:15] · скачан: 17 раз
Статус: √ проверено
Размер: 4.47 GB
Как cкачать? Как скачать Тени через торрент | qTorrent

% Раздел Тема Автор DL S | L
Зарубежные сериалы [ 26.85 GB ] Тени / Umbre / Сезон: 1 / Серии: 1-8 из 8 [2014 WEBRip 1080p] [MVO] killermax2013 Скачать
1 | 0

28-11-2019 20:33  

Отключить всю рекламу на сайте

    Дорогой пользователь! Огромная просьба, поблагодарите релизера, оцените раздачу и оставьте свои комментарий, если Вы скачали Тени через торрент бесплатно! Внесите свою лепту в развитие PiratBit!
    Комментировать посты могут только пользователи прошедшие не сложную регистрацию
    Показать сообщения:    

    Тени через торрент
    Скачать бесплатно Тени
    Тени скачать торрент
    Тени смотреть онлайн
    Cкачать фильм Тени бесплатно
    Тени скачать торрент в хорошем качестве
    Тени смотреть онлайн бесплатно в хорошем качестве


    Вы не можете начинать темы
    Вы не можете отвечать на сообщения
    Вы не можете редактировать свои сообщения
    Вы не можете удалять свои сообщения
    Вы не можете голосовать в опросах
    Вы не можете прикреплять файлы к сообщениям
    Вы можете скачивать файлы