Ссылка на приватное зеркало нашего сайта всего за 1$. Внимание количество ограничено!!!

2 сезон

iTunes

1 сезон

1

2 сезон

2 сезон

iTunes

1 сезон

RePack

30

Ultimate

ВАЖНО

ИГРА 18+

pack

RePack

MK11
pack

Забери бонус

RePack

jed

!!Акция!!

Alien_Rage

RePack

fifa19

RePack

Assassins Creed: Odyssey

RePack

NEED FOR SPEED™ PAYBACK

4 сезон

9 сезон

Бесстыжие 9 сезон

Все сериалы

все сериалы на PB.wtf

RePack

FAR CRY 5
  

Коронер / Coroner / Сезон: 1 / Серии: 1-8 из 8 (Эдриэнн Митчелл, Пол Фокс) [2019, драма, WEB-DL 1080p] MVO [NewStudio] pb.wtf

Коронер через торрент pb.wtf

Размер: 15.43 GB | Добавлен: 1 год 8 мес. назад | Торрент скачан:17 раз
Скачать  

06-03-2019 05:56 Коронер Скачать торрент  

Коронер / Coroner Год выпуска: 2019
Страна: Канада
Жанр: драма
Продолжительность: ~00:43:00 серия
Перевод: Профессиональный многоголосый | NewStudio
Субтитры: Русские

Режиссер: Эдриэнн Митчелл, Пол Фокс

rating

В ролях:

Серинда Свон, Эрен Кассам, Алли Чунг, Роджер Р. Кросс, Саад Сиддикуи, Эрик Брюно, Ловелл Адамс-Грэй, Грэм Йокич, Николас Кэмпбелл и другие

Описание:

В Торонто происходят загадочные убийства. Неизвестный маньяк ведёт хитроумную игру с представителями власти. Новый коронер решается бросить вызов хитроумному преступнику. В центре внимания сюжета оказывается не только расследование, но и острое психологическое противостояние персонажей.

Качество: WEB-DL 1080p
Формат: MKV

Видео: AVC/H.264, 1920x1080 (16:9) ~4 956 kbps
Аудио#1: Russian: AC3, 6 ch, 384 kb/s
Аудио#2: English: AC3, 6 ch, 384 kb/s
скриншот  скриншот  скриншот  скриншот  скриншот  

Общее
Уникальный идентификатор : 181616331892742609308534113508194386999 (0x88A2087FAD60CEC3915AB27DAA9A0437)
Полное имя : D:\Коронер s01.WEBDL.1080p.NewStudio. VapeArle\Коронер.s01e01.WEBDL.1080p.NewStudio. VapeArle.mkv
Формат : Matroska
Версия формата : Version 4 / Version 2
Размер файла : 2,06 Гбайт
Продолжительность : 43 м. 45 с.
Общий поток : 6736 Кбит/сек
Дата кодирования : UTC 2019-01-30 12:56:38
Программа кодирования : mkvmerge v9.8.0 ('Kuglblids') 64bit
Библиотека кодирования : libebml v1.3.4 + libmatroska v1.4.5

Видео
Идентификатор : 1
Формат : AVC
Формат/Информация : Advanced Video Codec
Профиль формата : High@L4
Параметр CABAC формата : Да
Параметр RefFrames формата : 4 кадра
Идентификатор кодека : V_MPEG4/ISO/AVC
Продолжительность : 43 м. 45 с.
Вид битрейта : Постоянный
Битрейт : 6000 Кбит/сек
Ширина : 1920 пикселей
Высота : 1080 пикселей
Соотношение сторон : 16:9
Режим частоты кадров : Постоянный
Частота кадров : 29,970 (30000/1001) кадров/сек
Цветовое пространство : YUV
Субдискретизация насыщенности : 4:2:0
Битовая глубина : 8 бит
Тип развёртки : Прогрессивная
Бит/(Пиксели*Кадры) : 0.097
Размер потока : 1,78 Гбайт (87%)
Default : Да
Forced : Нет

Аудио #1
Идентификатор : 2
Формат : AC-3
Формат/Информация : Audio Coding 3
Расширение режима : CM (complete main)
Параметр Endianness формата : Big
Идентификатор кодека : A_AC3
Продолжительность : 43 м. 45 с.
Вид битрейта : Постоянный
Битрейт : 384 Кбит/сек
Каналы : 6 каналов
Расположение каналов : Front: L C R, Side: L R, LFE
Частота : 48,0 КГц
Частота кадров : 31,250 кадров/сек (1536 spf)
Метод сжатия : С потерями
Размер потока : 120 Мбайт (6%)
Заголовок : NewStudio.TV
Язык : Russian
Default : Да
Forced : Нет

Аудио #2
Идентификатор : 3
Формат : AC-3
Формат/Информация : Audio Coding 3
Расширение режима : CM (complete main)
Параметр Endianness формата : Big
Идентификатор кодека : A_AC3
Продолжительность : 43 м. 45 с.
Вид битрейта : Постоянный
Битрейт : 384 Кбит/сек
Каналы : 6 каналов
Расположение каналов : Front: L C R, Side: L R, LFE
Частота : 48,0 КГц
Частота кадров : 31,250 кадров/сек (1536 spf)
Метод сжатия : С потерями
Размер потока : 120 Мбайт (6%)
Язык : English
Default : Нет
Forced : Нет

Текст
Идентификатор : 4
Формат : ASS
Идентификатор кодека : S_TEXT/ASS
Идентификатор кодека/Информация : Advanced Sub Station Alpha
Метод сжатия : Без потерь
Язык : Russian
Default : Да
Forced : Да

pb.wtf



Скачать Коронер через торрент http://i110.fastpic.ru/big/2019/0128/93/fe3032dd7dd5178a7d1a15b1301d3593.png Скачать фильм Коронер через торрент бесплантно в хорошем качестве Описание: В Торонто происходят загадочные убийства. Неизвестный маньяк ведёт хитроумную игру с представителями власти. Новый коронер ... 10 10 5
Торрент: Зарегистрирован [2019-03-06 05:56] · скачан: 17 раз
Статус: √ проверено
Размер: 15.43 GB
Как cкачать? Как скачать Коронер через торрент | qTorrent

% Раздел Тема Автор DL S | L
Зарубежные сериалы [ 15.73 GB ] Коронер / Coroner / Сезон: 1 / Серии 1-8 из 8 [2019 WEBRip 1080p] [MVO] killermax2013 Скачать
1 | 0
Зарубежные сериалы [ 7.48 GB ] Коронер / Coroner / Сезон: 1 / Серии 1-8 из 8 [2019 WEB-DL 720p] [MVO] killermax2013 Скачать
1 | 0
T Зарубежные сериалы [ 4.89 GB ] Коронер / Coroner / Сезон: 2 / Серии 1-8 из 8 [2020 WEB-DLRip] [MVO] killermax2013 Скачать
1 | 0

28-11-2019 20:33  

Отключить всю рекламу на сайте

    Дорогой пользователь! Огромная просьба, поблагодарите релизера, оцените раздачу и оставьте свои комментарий, если Вы скачали Коронер через торрент бесплатно! Внесите свою лепту в развитие PiratBit!
    Комментировать посты могут только пользователи прошедшие не сложную регистрацию
    Показать сообщения:    

    Коронер через торрент
    Скачать бесплатно Коронер
    Коронер скачать торрент
    Коронер смотреть онлайн
    Cкачать фильм Коронер бесплатно
    Коронер скачать торрент в хорошем качестве
    Коронер смотреть онлайн бесплатно в хорошем качестве


    Вы не можете начинать темы
    Вы не можете отвечать на сообщения
    Вы не можете редактировать свои сообщения
    Вы не можете удалять свои сообщения
    Вы не можете голосовать в опросах
    Вы не можете прикреплять файлы к сообщениям
    Вы можете скачивать файлы