Ссылка на приватное зеркало всего за 1$. Внимание количество ограничено!!!

iTunes

1+1

iTunes

мы

WEB-DL

1

iTunes

Чернобыль

iTunes

Ральф против интернета

Лицензия

ПШазам

Лицензия

Оно 2

Лицензия

30
pack

Вам бонус

ВАЖНО

!!Акция!!

Alien_RageХит недели

RePack

Resident Evil 21

ИГРА 18+

pack

RePack

jed

!!Акция!!

Alien_Rage

RePack

fifa19

RePack

Assassins Creed: Odyssey

RePack

NEED FOR SPEED™ PAYBACK

3 сезон

9 сезон

Бесстыжие 9 сезон

Все сериалы

все сериалы на PB.wtf

RePack

FAR CRY 5
Ребята, катастрофически не хватает 1900р. для оплаты серверов за Октябрь (всвязи с блокировками трафик упал в 3 раза), 1-2р., выручайте.
  

Стреляйте в пианиста / Tirez sur le pianiste (Франсуа Трюффо) [1960, триллер, драма, криминал, фильм-нуар, BDRip 720p by msltel] 2 x MVO pb.wtf

Стреляйте в пианиста через торрент pb.wtf

Размер: 2.54 GB | Добавлен: 9 мес. назад | Торрент скачан:1 раз
Скачать  

06-03-2019 09:50 Стреляйте в пианиста Скачать торрент  

Название: Стреляйте в пианиста
Оригинальное название: Tirez sur le pianiste
Год выпуска: 1960
Страна: Франция
Жанр: триллер, драма, криминал, фильм-нуар
Продолжительность: 01:21:17
Перевод: профессиональный многоголосый

Режиссер: Франсуа Трюффо
В ролях: Шарль Азнавур, Серж Даври, Ришар Канаян, Жак Асланян, Мари Дюбуа, Николь Берже, Клод Мансард, Альбер Реми, Мишель Мерсье, Даниэль Буланже

О фильме: Пытаясь забыть о трагедии, произошедшей с его женой, некогда известный пианист Эдвард Сароян работает в баре под именем Шарли Колера. Но его попытки скрыться от жизни безуспешны: Шарли влюбляется в официантку Лену. Комично робея при виде Лены, Шарли, между тем, с лёгкостью заводит интригу со своей соседкой, проституткой Клариссой... В баре появляется Чико, брат Шарли, за которым гонятся двое гангстеров. Шарли не может отказать брату и помогает ему уйти от погони, тем самым невольно впутывая в бандитские разборки не только себя, но и Лену, и своего младшего брата Фидо... Сценарий к фильму создавался на основе романа «Там, внизу» (1956) американского писателя Дэвида Гудиса.



Качество: BDRip 720p
Формат: MKV
Видео: MPEG-4 AVC, 3888 Кбит/с, 1280x548
Аудио 1: русский, AC3, 192 kbps, 2 ch, 48 kHz [закадровый многоголосый, SomeWax]
Аудио 2: русский, AC3, 192 kbps, 2 ch, 48 kHz [закадровый многоголосый, Кармен Видео]
Аудио 3: французский, AC3, 192 kbps, 2 ch, 48 kHz [оригинал]
Субтитры 1: русские
Субтитры 2: английские
Главы/чаптеры
Общее
Уникальный идентификатор : 171188825490774371850106415191845939984 (0x80C9C4BD722C1A778189644A1E96AB10)
Полное имя : D:\Video\Стреляйте в пианиста.1960.BDRip 720p by msltel.mkv
Формат : Matroska
Версия формата : Version 4
Размер файла : 2,54 Гбайт
Продолжительность : 1 ч. 21 м.
Общий поток : 4467 Кбит/сек
Название фильма : Rip by msltel
Дата кодирования : UTC 2019-03-05 20:26:19
Программа кодирования : mkvmerge v8.2.0 ('World of Adventure') 64bit
Библиотека кодирования : libebml v1.3.1 + libmatroska v1.4.2

Видео
Идентификатор : 1
Формат : AVC
Формат/Информация : Advanced Video Codec
Профиль формата : High@L4.1
Настройки формата : CABAC / 9 Ref Frames
Параметр CABAC формата : Да
Параметр RefFrames формата : 9 кадров
Идентификатор кодека : V_MPEG4/ISO/AVC
Продолжительность : 1 ч. 21 м.
Битрейт : 3888 Кбит/сек
Ширина : 1280 пикселей
Высота : 548 пикселей
Соотношение сторон : 2,35:1
Режим частоты кадров : Постоянный
Частота кадров : 24,000 кадра/сек
Цветовое пространство : YUV
Субдискретизация насыщенности : 4:2:0
Битовая глубина : 8 бит
Тип развёртки : Прогрессивная
Бит/(Пиксели*Кадры) : 0.231
Размер потока : 2,21 Гбайт (87%)
Библиотека кодирования : x264 core 157 r2935 545de2f
Настройки программы : cabac=1 / ref=9 / deblock=1:-2:-2 / analyse=0x3:0x113 / me=umh / subme=11 / psy=1 / psy_rd=1.00:0.15 / mixed_ref=1 / me_range=32 / chroma_me=1 / trellis=2 / 8x8dct=1 / cqm=0 / deadzone=21,11 / fast_pskip=0 / chroma_qp_offset=-3 / threads=6 / lookahead_threads=1 / sliced_threads=0 / nr=0 / decimate=1 / interlaced=0 / bluray_compat=0 / constrained_intra=0 / bframes=6 / b_pyramid=2 / b_adapt=2 / b_bias=0 / direct=1 / weightb=1 / open_gop=0 / weightp=2 / keyint=230 / keyint_min=23 / scenecut=40 / intra_refresh=0 / rc_lookahead=40 / rc=crf / mbtree=1 / crf=22.0 / qcomp=0.60 / qpmin=0 / qpmax=69 / qpstep=4 / vbv_maxrate=50000 / vbv_bufsize=62500 / crf_max=0.0 / nal_hrd=none / filler=0 / ip_ratio=1.40 / aq=1:1.00
Язык : French
Default : Да
Forced : Нет

Аудио #1
Идентификатор : 2
Формат : AC-3
Формат/Информация : Audio Coding 3
Коммерческое название : Dolby Digital
Идентификатор кодека : A_AC3
Продолжительность : 1 ч. 21 м.
Вид битрейта : Постоянный
Битрейт : 192 Кбит/сек
Каналы : 2 канала
Channel layout : L R
Частота : 48,0 КГц
Частота кадров : 31,250 кадров/сек (1536 SPF)
Битовая глубина : 16 бит
Метод сжатия : С потерями
Размер потока : 112 Мбайт (4%)
Заголовок : MVO SomeWax
Язык : Russian
ServiceKind/String : Complete Main
Default : Да
Forced : Нет

Аудио #2
Идентификатор : 3
Формат : AC-3
Формат/Информация : Audio Coding 3
Коммерческое название : Dolby Digital
Идентификатор кодека : A_AC3
Продолжительность : 1 ч. 21 м.
Вид битрейта : Постоянный
Битрейт : 192 Кбит/сек
Каналы : 2 канала
Channel layout : L R
Частота : 48,0 КГц
Частота кадров : 31,250 кадров/сек (1536 SPF)
Битовая глубина : 16 бит
Метод сжатия : С потерями
Размер потока : 112 Мбайт (4%)
Заголовок : MVO Кармен Видео
Язык : Russian
ServiceKind/String : Complete Main
Default : Нет
Forced : Нет

Аудио #3
Идентификатор : 4
Формат : AC-3
Формат/Информация : Audio Coding 3
Коммерческое название : Dolby Digital
Идентификатор кодека : A_AC3
Продолжительность : 1 ч. 21 м.
Вид битрейта : Постоянный
Битрейт : 192 Кбит/сек
Каналы : 2 канала
Channel layout : L R
Частота : 48,0 КГц
Частота кадров : 31,250 кадров/сек (1536 SPF)
Битовая глубина : 16 бит
Метод сжатия : С потерями
Размер потока : 112 Мбайт (4%)
Заголовок : original
Язык : French
ServiceKind/String : Complete Main
Default : Нет
Forced : Нет

Текст #1
Идентификатор : 5
Формат : UTF-8
Идентификатор кодека : S_TEXT/UTF8
Идентификатор кодека/Информация : UTF-8 Plain Text
Продолжительность : 1 ч. 21 м.
Битрейт : 109 бит/сек
ElementCount : 1006
Размер потока : 65,3 Кбайт (0%)
Заголовок : русские
Язык : Russian
Default : Нет
Forced : Нет

Текст #2
Идентификатор : 6
Формат : UTF-8
Идентификатор кодека : S_TEXT/UTF8
Идентификатор кодека/Информация : UTF-8 Plain Text
Продолжительность : 1 ч. 21 м.
Битрейт : 62 бит/сек
ElementCount : 1083
Размер потока : 37,1 Кбайт (0%)
Заголовок : английские
Язык : English
Default : Нет
Forced : Нет

Текст #3
Идентификатор : 7
Формат : UTF-8
Идентификатор кодека : S_TEXT/UTF8
Идентификатор кодека/Информация : UTF-8 Plain Text
Продолжительность : 1 ч. 18 м.
Битрейт : 80 бит/сек
ElementCount : 1132
Размер потока : 46,2 Кбайт (0%)
Заголовок : французские
Язык : French
Default : Нет
Forced : Нет

Меню
00:00:00.000 : en:Chapter 01
00:06:33.250 : en:Chapter 02
00:12:32.208 : en:Chapter 03
00:17:10.375 : en:Chapter 04
00:22:52.833 : en:Chapter 05
00:29:37.166 : en:Chapter 06
00:38:13.416 : en:Chapter 07
00:45:11.208 : en:Chapter 08
00:51:36.000 : en:Chapter 09
00:58:30.125 : en:Chapter 10
01:07:33.000 : en:Chapter 11
01:15:49.833 : en:Chapter 12
pb.wtf



Скачать Стреляйте в пианиста через торрент https://c.radikal.ru/c12/1903/61/aad2cb45a5f8.jpg Скачать фильм Стреляйте в пианиста через торрент бесплантно в хорошем качестве О фильме: Пытаясь забыть о трагедии, произошедшей с его женой, некогда известный пианист Эдвард Сароян работает в баре под именем Шарли ... 5 10 1
Info! Золотая раздача, скачанное не засчитывается.
Торрент: Зарегистрирован [2019-03-06 09:50] · скачан: 1 раз
Статус: √ проверено
Размер: 2.54 GB
Как cкачать? Как скачать Стреляйте в пианиста через торрент | qTorrent

% Раздел Тема Автор DL S | L
Арт-хаус и авторское кино [ 7.95 GB ] Стреляйте в пианиста / Tirez sur le pianiste [1960 фильм-нуар BDRip 1080p by msltel] 2 x MVO msltel Скачать
1 | 0

28-11-2019 20:33  

Отключить всю рекламу на сайте

06-03-2019 09:54 Стреляйте в пианиста Скачать торрент  

Топик был перенесен из форума Фильмы [HD 720p, 1080p] (Хороший звук DUB, MVO) в форум Арт-хаус и авторское кино


bober100pb.wtf



    Дорогой пользователь! Огромная просьба, поблагодарите релизера, оцените раздачу и оставьте свои комментарий, если Вы скачали Стреляйте в пианиста через торрент бесплатно! Внесите свою лепту в развитие PiratBit!
    Комментировать посты могут только пользователи прошедшие не сложную регистрацию
    Показать сообщения:    

    Стреляйте в пианиста через торрент
    Скачать бесплатно Стреляйте в пианиста
    Стреляйте в пианиста скачать торрент
    Стреляйте в пианиста смотреть онлайн
    Cкачать фильм Стреляйте в пианиста бесплатно
    Стреляйте в пианиста скачать торрент в хорошем качестве
    Стреляйте в пианиста смотреть онлайн бесплатно в хорошем качестве


    Вы не можете начинать темы
    Вы не можете отвечать на сообщения
    Вы не можете редактировать свои сообщения
    Вы не можете удалять свои сообщения
    Вы не можете голосовать в опросах
    Вы не можете прикреплять файлы к сообщениям
    Вы можете скачивать файлы