Ссылка на приватное зеркало всего за 1$. Внимание количество ограничено!!!

iTunes

1+1

iTunes

мы

WEB-DL

1

iTunes

Чернобыль

iTunes

Ральф против интернета

Лицензия

ПШазам

Лицензия

Оно 2

Лицензия

30
pack

Вам бонус

ВАЖНО

!!Акция!!

Alien_RageХит недели

RePack

Resident Evil 21

ИГРА 18+

pack

RePack

jed

!!Акция!!

Alien_Rage

RePack

fifa19

RePack

Assassins Creed: Odyssey

RePack

NEED FOR SPEED™ PAYBACK

3 сезон

9 сезон

Бесстыжие 9 сезон

Все сериалы

все сериалы на PB.wtf

RePack

FAR CRY 5
Ребята, катастрофически не хватает 1900р. для оплаты серверов за Октябрь (всвязи с блокировками трафик упал в 3 раза), 1-2р., выручайте.
  

Неделимое / Indivisible (Дэвид Дж. Эванс) [2018, драма, военный, BDRip-AVC] MVO [HDrezka Studio] pb.wtf

Неделимое через торрент pb.wtf

Размер: 2.08 GB | Добавлен: 9 мес. назад | Торрент скачан:58 раз
Скачать  

06-03-2019 10:27 Неделимое Скачать торрент  

Неделимое / Indivisible Год выпуска: 2018
Страна: США
Жанр: драма, военный
Продолжительность: 02:00:49
Перевод: Профессиональный (многоголосый) | HDrezka Studio
Субтитры: Английские (полные, SDH)

Режиссер: Дэвид Дж. Эванс

rating

В ролях:

Джастин Брюнинг, Сара Дрю, Джейсон Уинстон Джордж, Тиа Моури, Скай П. Маршалл, Тэннер Стайн, Мадлен Кэрролл, Майкл О'Нил, Эрик Клоуз, Эдди Каулукуки

Описание:

Вернувшись домой со службы, капеллан Даррен Тернер сталкивается с личностным кризисом, который рушит его семью и веру в Бога. С поддержкой бывших сослуживцев герой пытается вернуть свою жизнь обратно.

Качество: BDRip-AVC
Формат: MKV

Видео: 1024x436 (2.35:1), 23,976 fps, x264 ~1 821 kbps avg, 0.170 bit/pixel
Аудио#1: 48 kHz, AC3 Dolby Digital, 2 (L,R) ch, ~192.00 kbps avg | RUS (HDRezka Studio)
Аудио#2: 48 kHz, AC3 Dolby Digital, 3/2 (L,C,R,l,r) + LFE ch, ~448.00 kbps avg | ENG
скриншот  скриншот  скриншот  скриншот  скриншот  

Общее
Уникальный идентификатор : 52424872974776178380862451813979580380 (0x2770A9CC04020680CBCCA760F3D4E7DC)
Полное имя : F:OlLanDGroupIndivisible.2018.BDRip.(AVC).OlLanDGroup.mkv
Формат : Matroska
Версия формата : Version 4 / Version 2
Размер файла : 2,08 Гбайт
Продолжительность : 2 ч. 0 м.
Общий поток : 2463 Кбит/сек
Название фильма : Неделимые.2018 #TorpedoUK#
Дата кодирования : UTC 2019-03-06 09:35:33
Программа кодирования : mkvmerge v29.0.0 ('Like It Or Not') 64-bit
Библиотека кодирования : libebml v1.3.6 + libmatroska v1.4.9
Обложка : Yes
Attachments : Cover - Indivisible.png

Видео
Идентификатор : 1
Формат : AVC
Формат/Информация : Advanced Video Codec
Профиль формата : High@L4.1
Параметр CABAC формата : Да
Параметр ReFrames формата : 10 кадров
Идентификатор кодека : V_MPEG4/ISO/AVC
Продолжительность : 2 ч. 0 м.
Битрейт : 1821 Кбит/сек
Ширина : 1024 пикселя
Высота : 436 пикселей
Соотношение сторон : 2,35:1
Режим частоты кадров : Постоянный
Частота кадров : 23,976 (24000/1001) кадра/сек
Цветовое пространство : YUV
Субдискретизация насыщенности : 4:2:0
Битовая глубина : 8 бит
Тип развёртки : Прогрессивная
Бит/(Пиксели*Кадры) : 0.170
Размер потока : 1,54 Гбайт (74%)
Библиотека кодирования : x264 core 146 r2538 121396c
Настройки программы : cabac=1 / ref=10 / deblock=1:-2:-3 / analyse=0x3:0x113 / me=umh / subme=11 / psy=1 / psy_rd=0.95:0.07 / mixed_ref=1 / me_range=48 / chroma_me=1 / trellis=2 / 8x8dct=1 / cqm=0 / deadzone=21,11 / fast_pskip=1 / chroma_qp_offset=-3 / threads=6 / lookahead_threads=1 / sliced_threads=0 / nr=0 / decimate=1 / interlaced=0 / bluray_compat=0 / constrained_intra=0 / bframes=11 / b_pyramid=2 / b_adapt=2 / b_bias=0 / direct=3 / weightb=1 / open_gop=0 / weightp=2 / keyint=240 / keyint_min=23 / scenecut=40 / intra_refresh=0 / rc_lookahead=40 / rc=2pass / mbtree=0 / bitrate=1821 / ratetol=1.0 / qcomp=0.60 / qpmin=0 / qpmax=69 / qpstep=4 / cplxblur=20.0 / qblur=0.5 / vbv_maxrate=50000 / vbv_bufsize=62500 / nal_hrd=none / filler=0 / ip_ratio=1.40 / pb_ratio=1.30 / aq=1:1.00
Язык : English
Default : Да
Forced : Нет

Аудио #1
Идентификатор : 2
Формат : AC-3
Формат/Информация : Audio Coding 3
Расширение режима : CM (complete main)
Параметр Endianness формата : Big
Идентификатор кодека : A_AC3
Продолжительность : 2 ч. 0 м.
Вид битрейта : Постоянный
Битрейт : 192 Кбит/сек
Каналы : 2 канала
Расположение каналов : Front: L R
Частота : 48,0 КГц
Частота кадров : 31,250 кадров/сек (1536 spf)
Битовая глубина : 16 бит
Метод сжатия : С потерями
Размер потока : 166 Мбайт (8%)
Заголовок : MVO [HDRezka Studio]
Язык : Russian
Default : Да
Forced : Нет

Аудио #2
Идентификатор : 3
Формат : AC-3
Формат/Информация : Audio Coding 3
Расширение режима : CM (complete main)
Параметр Endianness формата : Big
Идентификатор кодека : A_AC3
Продолжительность : 2 ч. 0 м.
Вид битрейта : Постоянный
Битрейт : 448 Кбит/сек
Каналы : 6 каналов
Расположение каналов : Front: L C R, Side: L R, LFE
Частота : 48,0 КГц
Частота кадров : 31,250 кадров/сек (1536 spf)
Битовая глубина : 16 бит
Метод сжатия : С потерями
Размер потока : 387 Мбайт (18%)
Заголовок : [Original]
Язык : English
Default : Нет
Forced : Нет

Текст #1
Идентификатор : 4
Формат : UTF-8
Идентификатор кодека : S_TEXT/UTF8
Идентификатор кодека/Информация : UTF-8 Plain Text
Продолжительность : 1 ч. 54 м.
Битрейт : 65 бит/сек
Count of elements : 1919
Размер потока : 55,3 Кбайт (0%)
Заголовок : Full
Язык : English
Default : Нет
Forced : Нет

Текст #2
Идентификатор : 5
Формат : UTF-8
Идентификатор кодека : S_TEXT/UTF8
Идентификатор кодека/Информация : UTF-8 Plain Text
Продолжительность : 1 ч. 59 м.
Битрейт : 69 бит/сек
Count of elements : 2128
Размер потока : 60,6 Кбайт (0%)
Заголовок : SDH
Язык : English
Default : Нет
Forced : Нет

Меню
00:00:00.000 : :Chapter 01
00:05:59.109 : :Chapter 02
00:12:28.331 : :Chapter 03
00:17:47.358 : :Chapter 04
00:24:20.501 : :Chapter 05
00:29:54.543 : :Chapter 06
00:36:00.950 : :Chapter 07
00:41:55.972 : :Chapter 08
00:47:21.088 : :Chapter 09
00:53:47.099 : :Chapter 10
01:00:56.736 : :Chapter 11
01:04:44.839 : :Chapter 12
01:10:10.540 : :Chapter 13
01:16:27.541 : :Chapter 14
01:23:56.782 : :Chapter 15
01:29:22.399 : :Chapter 16
01:35:37.440 : :Chapter 17
01:41:55.109 : :Chapter 18
01:47:46.585 : :Chapter 19
01:52:49.346 : :Chapter 20

pb.wtf



Скачать Неделимое через торрент https://i109.fastpic.ru/big/2019/0306/ee/bd62ce3bed3fc517f96812c8c70058ee.jpg Скачать фильм Неделимое через торрент бесплантно в хорошем качестве Описание: Вернувшись домой со службы, капеллан Даррен Тернер сталкивается с личностным кризисом, который рушит его семью и веру в Бога. С ... 10 10 3
Торрент: Зарегистрирован [2019-03-06 10:27] · скачан: 58 раз
Статус: T временная
Размер: 2.08 GB
Как cкачать? Как скачать Неделимое через торрент | qTorrent

% Раздел Тема Автор DL S | L
T Фильмы [HD 720p, 1080p] (Хороший звук DUB, MVO) [ 8.11 GB ] Неделимое / Indivisible [2018 военный BDRip 1080p] MVO [HDrezka Studio] bober100 Скачать
1 | 0

28-11-2019 20:33  

Отключить всю рекламу на сайте

    Дорогой пользователь! Огромная просьба, поблагодарите релизера, оцените раздачу и оставьте свои комментарий, если Вы скачали Неделимое через торрент бесплатно! Внесите свою лепту в развитие PiratBit!
    Комментировать посты могут только пользователи прошедшие не сложную регистрацию
    Показать сообщения:    

    Неделимое через торрент
    Скачать бесплатно Неделимое
    Неделимое скачать торрент
    Неделимое смотреть онлайн
    Cкачать фильм Неделимое бесплатно
    Неделимое скачать торрент в хорошем качестве
    Неделимое смотреть онлайн бесплатно в хорошем качестве


    Вы не можете начинать темы
    Вы не можете отвечать на сообщения
    Вы не можете редактировать свои сообщения
    Вы не можете удалять свои сообщения
    Вы не можете голосовать в опросах
    Вы не можете прикреплять файлы к сообщениям
    Вы можете скачивать файлы