Ссылка на приватное зеркало нашего сайта всего за 1$. Внимание количество ограничено!!!

2 сезон

iTunes

1 сезон

1

2 сезон

2 сезон

iTunes

1 сезон

RePack

30

Ultimate

ВАЖНО

ИГРА 18+

pack

RePack

MK11
pack

Забери бонус

RePack

jed

!!Акция!!

Alien_Rage

RePack

fifa19

RePack

Assassins Creed: Odyssey

RePack

NEED FOR SPEED™ PAYBACK

4 сезон

9 сезон

Бесстыжие 9 сезон

Все сериалы

все сериалы на PB.wtf

RePack

FAR CRY 5
  

Реальная белка 2 3Д / The Nut Job 2: Nutty by Nature 3D (Кэллан Брункер) [2017, Мультфильм, комедия, приключения, семейный, BDRip 1080p] [Half OverUnder / Вертикальная анаморфная стереопара] DUB (rus, ukr) [iTunes] pb.wtf

Реальная белка 2 3Д через торрент pb.wtf

Размер: 9.03 GB | Добавлен: 1 год 8 мес. назад | Торрент скачан:20 раз
Скачать  

06-03-2019 10:56 Реальная белка 2 3Д Скачать торрент  

Реальная белка 2
The Nut Job 2: Nutty by Nature 3D

Год выпуска: 2017
Страна: Канада, Корея Южная, США
Жанр: Мультфильм, комедия, приключения, семейный
Продолжительность: 01:31:13
Перевод: Дублированный | iTunes
Субтитры:

Вшитые (softsub):
#1 - Русские Форсированные [Ash61] (включены по умолчанию)
#2 - Русские Полные
#3 - Украинские Форсированные [Ash61]
#4 - English Full
#5 - English SDH

Внешние (UTF-8):
#1 - Русские Форсированные [Ash61] (включены по умолчанию)
#2 - Русские Полные
#3 - Украинские Форсированные [Ash61]

Режиссер: Кэллан Брункер

rating

В ролях:

Уилл Арнетт, Кэтрин Хейгл, Майя Рудольф, Джеки Чан, Изабела Монер, Петер Стормаре, Бобби Каннавейл, Бобби Мойнахан, Джефф Данэм, Габриэль Иглесиас

Описание:

В продолжении веселых хвостатых приключений белке Злюку и его друзьям снова нужно действовать сообща. На сей раз — чтобы спасти свой дом: мэр города задумал вырубить их парк и построить на его месте бездушные аттракционы... К счастью, у Злюка и других любителей арахиса есть план, не последняя роль в котором отведена новым друзьям наших героев — белым мышам под предводительством мудрого мистера Фэнга.

Качество: BDRip 1080p
Формат: MKV

Видео: AVC / 1920х1080p / 23,976 fps / 13.0 Mbps
Аудио#1: Русский / AC3 / 48 KHz / 5.1 ch / 384 Kbps (Дубляж - iTunes)
Аудио#2: Украинский / AC3 / 48 KHz / 2 ch / 192 Kbps (Дубляж - Line) (моно) [спасибо Hurtom!]
Аудио#3: Английский / AC3 / 48 KHz / 5.1 ch / 640 Kbps (Original - BD 3D)


Формат 3D: Half OverUnder / Вертикальная анаморфная стереопара
Порядок ракурсов: левый ракурс первый
скриншот  скриншот  скриншот  скриншот  скриншот  

General
Unique ID : 223785101406825557767402939361072140401 (0xA85B715ABB736151B7B16367BA765071)
Complete name : J:TheNutJob2(2017)3D-halfOU(Ash61)iTunesTheNutJob2(2017)3D-halfOU(Ash61)iTunes.mkv
Format : Matroska
Format version : Version 2
File size : 9.03 GiB
Duration : 1h 30mn
Overall bit rate : 14.2 Mbps
Movie name : Реальная белка 2 / The Nut Job 2: Nutty by Nature (2017) in 3D
Encoded date : UTC 2019-03-06 09:15:54
Writing application : mkvmerge v5.8.0 ('No Sleep / Pillow') built on Sep 2 2012 15:37:04
Writing library : libebml v1.2.3 + libmatroska v1.3.0

Video
ID : 1
Format : AVC
Format/Info : Advanced Video Codec
Format profile : High@L4.1
Format settings, CABAC : Yes
Format settings, ReFrames : 4 frames
Codec ID : V_MPEG4/ISO/AVC
Duration : 1h 30mn
Bit rate : 13.0 Mbps
Width : 1 920 pixels
Height : 1 080 pixels
Display aspect ratio : 16:9
Frame rate mode : Constant
Frame rate : 23.976 (24000/1001) fps
Color space : YUV
Chroma subsampling : 4:2:0
Bit depth : 8 bits
Scan type : Progressive
Bits/(Pixel*Frame) : 0.261
Stream size : 8.08 GiB (89%)
Title : BDRip by Ash61 (source - BD 3D Ger)
Writing library : x264 core 146 r2538 121396c
Encoding settings : cabac=1 / ref=4 / deblock=1:-3:-3 / analyse=0x3:0x113 / me=umh / subme=10 / psy=1 / psy_rd=1.00:0.00 / mixed_ref=1 / me_range=32 / chroma_me=1 / trellis=2 / 8x8dct=1 / cqm=0 / deadzone=21,11 / fast_pskip=0 / chroma_qp_offset=-2 / threads=12 / lookahead_threads=2 / sliced_threads=0 / nr=0 / decimate=0 / interlaced=0 / bluray_compat=0 / constrained_intra=0 / bframes=8 / b_pyramid=2 / b_adapt=2 / b_bias=0 / direct=3 / weightb=1 / open_gop=0 / weightp=2 / keyint=250 / keyint_min=23 / scenecut=40 / intra_refresh=0 / rc_lookahead=60 / rc=2pass / mbtree=0 / bitrate=13000 / ratetol=1.0 / qcomp=0.70 / qpmin=0 / qpmax=69 / qpstep=4 / cplxblur=20.0 / qblur=0.5 / vbv_maxrate=40000 / vbv_bufsize=30000 / nal_hrd=none / filler=0 / frame-packing=4 / ip_ratio=1.40 / pb_ratio=1.30 / aq=1:0.70
Language : English
Default : Yes
Forced : No

Audio #1
ID : 2
Format : AC-3
Format/Info : Audio Coding 3
Mode extension : CM (complete main)
Format settings, Endianness : Big
Codec ID : A_AC3
Duration : 1h 30mn
Bit rate mode : Constant
Bit rate : 384 Kbps
Channel(s) : 6 channels
Channel positions : Front: L C R, Side: L R, LFE
Sampling rate : 48.0 KHz
Frame rate : 31.250 fps (1536 spf)
Compression mode : Lossy
Stream size : 250 MiB (3%)
Title : Дубляж (iTunes, edited)
Language : Russian
Default : Yes
Forced : No

Audio #2
ID : 3
Format : AC-3
Format/Info : Audio Coding 3
Mode extension : CM (complete main)
Format settings, Endianness : Big
Codec ID : A_AC3
Duration : 1h 30mn
Bit rate mode : Constant
Bit rate : 192 Kbps
Channel(s) : 2 channels
Channel positions : Front: L R
Sampling rate : 48.0 KHz
Frame rate : 31.250 fps (1536 spf)
Compression mode : Lossy
Stream size : 125 MiB (1%)
Title : Дубляж (Line, edited) (моно)
Language : Ukrainian
Default : No
Forced : No

Audio #3
ID : 4
Format : AC-3
Format/Info : Audio Coding 3
Mode extension : CM (complete main)
Format settings, Endianness : Big
Codec ID : A_AC3
Duration : 1h 30mn
Bit rate mode : Constant
Bit rate : 640 Kbps
Channel(s) : 6 channels
Channel positions : Front: L C R, Side: L R, LFE
Sampling rate : 48.0 KHz
Frame rate : 31.250 fps (1536 spf)
Compression mode : Lossy
Stream size : 417 MiB (5%)
Title : Original
Language : English
Default : No
Forced : No

Text #1
ID : 5
Format : UTF-8
Codec ID : S_TEXT/UTF8
Codec ID/Info : UTF-8 Plain Text
Title : Форсированные [от Ash61]
Language : Russian
Default : Yes
Forced : No

Text #2
ID : 6
Format : UTF-8
Codec ID : S_TEXT/UTF8
Codec ID/Info : UTF-8 Plain Text
Title : Полные
Language : Russian
Default : No
Forced : No

Text #3
ID : 7
Format : UTF-8
Codec ID : S_TEXT/UTF8
Codec ID/Info : UTF-8 Plain Text
Title : Форсированные [от Ash61]
Language : Ukrainian
Default : No
Forced : No

Text #4
ID : 8
Format : UTF-8
Codec ID : S_TEXT/UTF8
Codec ID/Info : UTF-8 Plain Text
Title : Full
Language : English
Default : No
Forced : No

Text #5
ID : 9
Format : UTF-8
Codec ID : S_TEXT/UTF8
Codec ID/Info : UTF-8 Plain Text
Title : SDH
Language : English
Default : No
Forced : No

Menu
00:00:00.000 : :1
00:03:38.718 : :2
00:07:11.056 : :3
00:15:00.566 : :4
00:22:44.488 : :5
00:31:34.810 : :6
00:37:09.894 : :7
00:44:18.531 : :8
00:52:54.755 : :9
00:59:14.092 : :10
01:13:41.626 : :11
01:20:56.101 : :12

pb.wtf



Скачать Реальная белка 2 3Д через торрент https://c.radikal.ru/c37/1903/b4/11e11bdd418c.png Скачать фильм Реальная белка 2 3Д через торрент бесплантно в хорошем качестве Описание: В продолжении веселых хвостатых приключений белке Злюку и его друзьям снова нужно действовать сообща. На сей раз — чтобы спасти ... 10 10 2
Торрент: Зарегистрирован [2019-03-06 10:56] · скачан: 20 раз
Статус: √ проверено
Размер: 9.03 GB
Как cкачать? Как скачать Реальная белка 2 3Д через торрент | qTorrent

% Раздел Тема Автор DL S | L
3D Мультфильмы [ 11.96 GB ] Реальная белка 2 в 3Д / The Nut Job 2: Nutty by Nature 3D [2017 мультфильм BDRip 1080p] OverUnder / Вертикальная стереопара DUB serega768 Скачать
1 | 0

28-11-2019 20:33  

Отключить всю рекламу на сайте

    Дорогой пользователь! Огромная просьба, поблагодарите релизера, оцените раздачу и оставьте свои комментарий, если Вы скачали Реальная белка 2 3Д через торрент бесплатно! Внесите свою лепту в развитие PiratBit!
    Комментировать посты могут только пользователи прошедшие не сложную регистрацию
    Показать сообщения:    

    Реальная белка 2 3Д через торрент
    Скачать бесплатно Реальная белка 2 3Д
    Реальная белка 2 3Д скачать торрент
    Реальная белка 2 3Д смотреть онлайн
    Cкачать фильм Реальная белка 2 3Д бесплатно
    Реальная белка 2 3Д скачать торрент в хорошем качестве
    Реальная белка 2 3Д смотреть онлайн бесплатно в хорошем качестве


    Вы не можете начинать темы
    Вы не можете отвечать на сообщения
    Вы не можете редактировать свои сообщения
    Вы не можете удалять свои сообщения
    Вы не можете голосовать в опросах
    Вы не можете прикреплять файлы к сообщениям
    Вы можете скачивать файлы