Всегда рабочее зеркало без VPN и Proxy просто перед .vidak.icu напиши любое слово или цифру, Пример http://8vco.vidak.icu

MVO

Лицензия

1 сезон

1

1 сезон

iTunes

1 сезон

13

1 сезон

Deluxe

pack

Рекомендуем

Repack

30

ВАЖНО

RePack

MK11

RePack

jed

RePack

fifa19

RePack

RDR2

RePack

NEED FOR SPEED™ PAYBACK

Кинопоиск HD

6 сезон

 Острые козырьки 6 сезон

Все сериалы

все сериалы на PB.wtf

RePack

FAR CRY 5
  
Magnet ссылка

Фокстрот / Foxtrot (Самуэль Маоз) [2017, драма, BDRip 720p by msltel] MVO, VO pb.wtf

Фокстрот через торрент pb.wtf

Размер: 3.93 GB | Добавлен: 3 года 4 мес. назад | Торрент скачан:21 раз
Смотреть онлайн Фокстрот | Скачать    Ребята, помогите собрать деньги на оплату серверов!!!

06-03-2019 12:08 Фокстрот Скачать торрент  

Название: Фокстрот
Оригинальное название: Foxtrot
Год выпуска: 2017
Страна: Израиль, Швейцария, Германия, Франция
Жанр: драма
Продолжительность: 01:52:36
Перевод: профессиональный многоголосый, любительский одноголосый

Режиссер: Самуэль Маоз
В ролях: иор Ашкенази, Сара Адлер, Йонатан Ширай, Шира Хаас, Декел Эйден, Йехуда Альмагор, Шол Амир, Гефен Баркай, Ран Буксенбаум, Рами Бузагло, Арье Шернер, Иден Дэниэл, Яэль Эйзенберг, Итай Экслроад, Эден Гмлиль, Илья Гроц, Сабина Хельсторф, Дэнни Иссерлес, Ирит Каплан

О фильме: На пороге фешенебельной квартиры Михаэля и Дафны появляется военный эскорт с трагическим известием — их сын погиб, исполняя свой воинский долг. Супруги опустошены ужасной вестью. Михаэль пытается совладать с приступами ярости, боли, отчаяния и дурноты, жена находится под воздействием снотворного. А в это время на отдалённом КПП юные солдаты борются со скукой армейской жизни и переживают редкие мгновения смертельной опасности...



Качество: BDRip 720p
Формат: MKV
Видео: MPEG-4 AVC, 4231 Кбит/с, 1280x536
Аудио 1: русский, AAC, 123 kbps, 2 ch, 48 kHz [закадровый многоголосый, iTunes]
Аудио 2: русский, AC3, 192 kbps, 2 ch, 48 kHz [закадровый одноголосый, visanti-vasaer]
Аудио 3: иврит, AC3, 448 kbps, 6 ch, 48 kHz [оригинал]
Субтитры 1: русские
Субтитры 2: английские
Главы/чаптеры
Общее
Уникальный идентификатор : 199960765416768609973554973132904712614 (0x966F0AE6A54EEE579B10A176D05FC9A6)
Полное имя : D:\Video\Фокстрот.2017.BDRip 720p by msltel.mkv
Формат : Matroska
Версия формата : Version 4
Размер файла : 3,93 Гбайт
Продолжительность : 1 ч. 52 м.
Общий поток : 4997 Кбит/сек
Название фильма : Rip by msltel
Дата кодирования : UTC 2019-03-06 07:25:29
Программа кодирования : mkvmerge v8.2.0 ('World of Adventure') 64bit
Библиотека кодирования : libebml v1.3.1 + libmatroska v1.4.2

Видео
Идентификатор : 1
Формат : AVC
Формат/Информация : Advanced Video Codec
Профиль формата : [email protected]
Настройки формата : CABAC / 9 Ref Frames
Параметр CABAC формата : Да
Параметр RefFrames формата : 9 кадров
Идентификатор кодека : V_MPEG4/ISO/AVC
Продолжительность : 1 ч. 52 м.
Битрейт : 4231 Кбит/сек
Ширина : 1280 пикселей
Высота : 536 пикселей
Соотношение сторон : 2,40:1
Режим частоты кадров : Постоянный
Частота кадров : 24,000 кадра/сек
Цветовое пространство : YUV
Субдискретизация насыщенности : 4:2:0
Битовая глубина : 8 бит
Тип развёртки : Прогрессивная
Бит/(Пиксели*Кадры) : 0.257
Размер потока : 3,33 Гбайт (85%)
Библиотека кодирования : x264 core 157 r2935 545de2f
Настройки программы : cabac=1 / ref=9 / deblock=1:-2:-2 / analyse=0x3:0x113 / me=umh / subme=11 / psy=1 / psy_rd=1.00:0.15 / mixed_ref=1 / me_range=32 / chroma_me=1 / trellis=2 / 8x8dct=1 / cqm=0 / deadzone=21,11 / fast_pskip=0 / chroma_qp_offset=-3 / threads=6 / lookahead_threads=1 / sliced_threads=0 / nr=0 / decimate=1 / interlaced=0 / bluray_compat=0 / constrained_intra=0 / bframes=8 / b_pyramid=2 / b_adapt=2 / b_bias=0 / direct=1 / weightb=1 / open_gop=0 / weightp=2 / keyint=230 / keyint_min=23 / scenecut=40 / intra_refresh=0 / rc_lookahead=40 / rc=crf / mbtree=1 / crf=15.5 / qcomp=0.60 / qpmin=0 / qpmax=69 / qpstep=4 / vbv_maxrate=50000 / vbv_bufsize=62500 / crf_max=0.0 / nal_hrd=none / filler=0 / ip_ratio=1.40 / aq=1:1.00
Язык : Hebrew
Default : Да
Forced : Нет

Аудио #1
Идентификатор : 2
Формат : AAC LC
Формат/Информация : Advanced Audio Codec Low Complexity
Идентификатор кодека : A_AAC-2
Продолжительность : 1 ч. 52 м.
Битрейт : 123 Кбит/сек
Каналы : 2 канала
Channel layout : L R
Частота : 48,0 КГц
Частота кадров : 46,875 кадров/сек (1024 SPF)
Метод сжатия : С потерями
Размер потока : 98,7 Мбайт (2%)
Заголовок : MVO iTunes
Язык : Russian
Default : Да
Forced : Нет

Аудио #2
Идентификатор : 3
Формат : AC-3
Формат/Информация : Audio Coding 3
Коммерческое название : Dolby Digital
Идентификатор кодека : A_AC3
Продолжительность : 1 ч. 52 м.
Вид битрейта : Постоянный
Битрейт : 192 Кбит/сек
Каналы : 2 канала
Channel layout : L R
Частота : 48,0 КГц
Частота кадров : 31,250 кадров/сек (1536 SPF)
Битовая глубина : 16 бит
Метод сжатия : С потерями
Размер потока : 155 Мбайт (4%)
Заголовок : visanti-vasaer
Язык : Russian
ServiceKind/String : Complete Main
Default : Нет
Forced : Нет

Аудио #3
Идентификатор : 4
Формат : AC-3
Формат/Информация : Audio Coding 3
Коммерческое название : Dolby Digital
Идентификатор кодека : A_AC3
Продолжительность : 1 ч. 52 м.
Вид битрейта : Постоянный
Битрейт : 448 Кбит/сек
Каналы : 6 каналов
Channel layout : L R C LFE Ls Rs
Частота : 48,0 КГц
Частота кадров : 31,250 кадров/сек (1536 SPF)
Битовая глубина : 16 бит
Метод сжатия : С потерями
Размер потока : 361 Мбайт (9%)
Заголовок : original
Язык : Hebrew
ServiceKind/String : Complete Main
Default : Нет
Forced : Нет

Текст #1
Идентификатор : 5
Формат : UTF-8
Идентификатор кодека : S_TEXT/UTF8
Идентификатор кодека/Информация : UTF-8 Plain Text
Продолжительность : 1 ч. 40 м.
Битрейт : 56 бит/сек
ElementCount : 679
Размер потока : 41,6 Кбайт (0%)
Заголовок : русские
Язык : Russian
Default : Нет
Forced : Нет

Текст #2
Идентификатор : 6
Формат : UTF-8
Идентификатор кодека : S_TEXT/UTF8
Идентификатор кодека/Информация : UTF-8 Plain Text
Продолжительность : 1 ч. 40 м.
Битрейт : 28 бит/сек
ElementCount : 598
Размер потока : 21,2 Кбайт (0%)
Заголовок : английские
Язык : English
Default : Нет
Forced : Нет

Меню
00:00:00.000 : en:00:00:00.000
00:12:50.500 : en:00:12:50.500
00:25:26.042 : en:00:25:26.042
00:36:49.125 : en:00:36:49.125
00:48:55.292 : en:00:48:55.292
01:01:05.292 : en:01:01:05.292
01:13:49.000 : en:01:13:49.000
01:24:12.125 : en:01:24:12.125
01:44:27.542 : en:01:44:27.542
pb.wtf



Скачать Фокстрот через торрент https://c.radikal.ru/c10/1903/82/d77d93ba7fa5.jpg Скачать, смотреть онлайн Фокстрот бесплантно в хорошем качестве О фильме: На пороге фешенебельной квартиры Михаэля и Дафны появляется военный эскорт с трагическим известием — их сын погиб, исполняя свой ... 5 10 1
Торрент: Зарегистрирован [2019-03-06 12:08] · скачан: 21 раз
Статус: T временная
Размер: 3.93 GB
Как cкачать? Как скачать Фокстрот через торрент | UTorrent

% Раздел Тема Автор DL S | L
T Фильмы [HD 720p, 1080p] (Хороший звук DUB, MVO) [ 12.04 GB ] Фокстрот / Foxtrot [2017 BDRip 1080p by msltel] MVO VO msltel Скачать
1 | 0
Фильмы 2017 [DVDrip, WEB-DLRip, HDrip] (DUB, MVO) [ 1.46 GB ] Фокстрот / Foxtrot [2017 BDRip] MVO bober100 Скачать
1 | 0
Фильмы 2018 [DVDrip, WEB-DLRip, HDrip] (DUB, MVO) [ 1.46 GB ] Фокстрот / Foxtrot [2018 WEB-DLRip-AVC] MVO bober100 Скачать
1 | 0
T Фильмы (WEB-DL 720p, 1080p) [ 4 GB ] Фокстрот / Foxtrot [2018 WEB-DL 1080p] MVO bober100 Скачать
1 | 0

28-11-2019 20:33  

Отключить всю рекламу на сайте

    Дорогой пользователь! Огромная просьба, поблагодарите релизера, оцените раздачу и оставьте свои комментарий, если Вы скачали Фокстрот через торрент бесплатно!
    Комментировать посты могут только пользователи прошедшие не сложную регистрацию
    Показать сообщения:    

    Фокстрот через торрент
    Скачать бесплатно Фокстрот
    Фокстрот скачать торрент
    Фокстрот смотреть онлайн
    Cкачать фильм Фокстрот бесплатно
    Фокстрот скачать торрент в хорошем качестве
    Фокстрот смотреть онлайн бесплатно в хорошем качестве


    Вы не можете начинать темы
    Вы не можете отвечать на сообщения
    Вы не можете редактировать свои сообщения
    Вы не можете удалять свои сообщения
    Вы не можете голосовать в опросах
    Вы не можете прикреплять файлы к сообщениям
    Вы можете скачивать файлы