Ссылка на приватное зеркало нашего сайта всего за 1$. Внимание количество ограничено!!!

2 сезон

iTunes

iTunes

1

iTunes

iTunes

iTunes

WEBRip

iTunes

30
pack

Новость дня

ВАЖНО

!!Акция!!

Alien_RageХит недели

RePack

Horizon Zero Dawn

ИГРА 18+

pack

RePack

jed

!!Акция!!

Alien_Rage

RePack

fifa19

RePack

Assassins Creed: Odyssey

RePack

NEED FOR SPEED™ PAYBACK

4 сезон

9 сезон

Бесстыжие 9 сезон

Все сериалы

все сериалы на PB.wtf

RePack

FAR CRY 5
  

Пёс с котом / Jak pies z kotem (Януш Кондратюк) [2018, драма, комедия, BDRip 720p] MVO ["Синема УС"] pb.wtf

Пёс с котом через торрент pb.wtf

Размер: 4.82 GB | Добавлен: 1 год 6 мес. назад | Торрент скачан:13 раз
Скачать  

06-03-2019 12:31 Пёс с котом Скачать торрент  

Пёс с котом / Jak pies z kotemГод выпуска: 2018
Страна: Польша
Жанр: драма, комедия
Продолжительность: 01:38:26
Перевод: Любительский (многоголосый) | "Синема УС"
Субтитры: отсутствуют

Режиссер: Януш Кондратюк

rating

В ролях:

Ольгерд Лукашевич, Роберт Венцкевич, Божена Стахура, Александра Конечна, Клара Бьелавка, Доминик Биенек, Павел Бодич, Мариан Бучковски, Радослав Чабовский, Паулина Галазка

Описание:

Отдалившиеся друг от друга братья Анджей и Януш - оба признанные кинорежиссеры. Когда старшего, Анджея, парализовало инсульта, Януш с женой решается заботиться и опекать его.

Качество: BDRip 720p
Формат: MKV

Видео: h.264,6 557 Кбит/с, 1280x690
Аудио#1: Русский (AC3, 2 ch, 448 Кбит/с)
скриншот  скриншот  скриншот  

Общее
Уникальный идентификатор : 216204308718849123479011535216770928934 (0xA2A76F6B04A5852189B39DA2BE05D126)
Полное имя : D:\A.cat.with.a.dog.2018.P.BDRip.72Op.mkv
Формат : Matroska
Версия формата : Version 2
Размер файла : 4,82 Гбайт
Продолжительность : 1 ч. 38 м.
Режим общего битрейта : Переменный
Общий поток : 7007 Кбит/сек
Дата кодирования : UTC 2019-03-05 21:50:32
Программа кодирования : mkvmerge v8.3.0 ('Over the Horizon') 64bit
Библиотека кодирования : libebml v1.3.1 + libmatroska v1.4.2

Видео
Идентификатор : 1
Формат : AVC
Формат/Информация : Advanced Video Codec
Профиль формата : High@L4.1
Параметр CABAC формата : Да
Параметр RefFrames формата : 4 кадра
Идентификатор кодека : V_MPEG4/ISO/AVC
Продолжительность : 1 ч. 38 м.
Вид битрейта : Переменный
Битрейт : 6557 Кбит/сек
Максимальный битрейт : 7500 Кбит/сек
Ширина : 1280 пикселей
Высота : 688 пикселей
Соотношение сторон : 1,85:1
Режим частоты кадров : Постоянный
Частота кадров : 23,976 (24000/1001) кадра/сек
Стандарт вещания : Component
Цветовое пространство : YUV
Субдискретизация насыщенности : 4:2:0
Битовая глубина : 8 бит
Тип развёртки : Прогрессивная
Бит/(Пиксели*Кадры) : 0.304
Размер потока : 4,41 Гбайт (92%)
Default : Да
Forced : Нет
Цветовой диапазон : Limited
Основные цвета : BT.709
Характеристики трансфера : BT.709
Коэффициенты матрицы : BT.709

Аудио
Идентификатор : 2
Формат : AC-3
Формат/Информация : Audio Coding 3
Расширение режима : CM (complete main)
Параметр Endianness формата : Big
Идентификатор кодека : A_AC3
Продолжительность : 1 ч. 38 м.
Вид битрейта : Постоянный
Битрейт : 448 Кбит/сек
Каналы : 2 канала
Расположение каналов : Front: L R
Частота : 48,0 КГц
Частота кадров : 31,250 кадров/сек (1536 spf)
Метод сжатия : С потерями
Размер потока : 315 Мбайт (6%)
Default : Да
Forced : Нет

pb.wtf



Скачать Пёс с котом через торрент https://a.radikal.ru/a09/1903/23/bb29c09fd0f0.jpg Скачать фильм Пёс с котом через торрент бесплантно в хорошем качестве Описание: Отдалившиеся друг от друга братья Анджей и Януш - оба признанные кинорежиссеры. Когда старшего, Анджея, парализовало инсульта, ... 10 10 2
Торрент: Зарегистрирован [2019-03-06 12:31] · скачан: 13 раз
Статус: # сомнительно
Размер: 4.82 GB
Как cкачать? Как скачать Пёс с котом через торрент | qTorrent

% Раздел Тема Автор DL S | L
T Фильмы (мультфильмы) cо спонсором показа (Новинки AVI/MKV) [ 1.37 GB ] Пёс с котом / Jak pies z kotem [2018 HDRip] MVO ["Синема УС"] bober100 Скачать
1 | 0

28-11-2019 20:33  

Отключить всю рекламу на сайте

    Дорогой пользователь! Огромная просьба, поблагодарите релизера, оцените раздачу и оставьте свои комментарий, если Вы скачали Пёс с котом через торрент бесплатно! Внесите свою лепту в развитие PiratBit!
    Комментировать посты могут только пользователи прошедшие не сложную регистрацию
    Показать сообщения:    

    Пёс с котом через торрент
    Скачать бесплатно Пёс с котом
    Пёс с котом скачать торрент
    Пёс с котом смотреть онлайн
    Cкачать фильм Пёс с котом бесплатно
    Пёс с котом скачать торрент в хорошем качестве
    Пёс с котом смотреть онлайн бесплатно в хорошем качестве


    Вы не можете начинать темы
    Вы не можете отвечать на сообщения
    Вы не можете редактировать свои сообщения
    Вы не можете удалять свои сообщения
    Вы не можете голосовать в опросах
    Вы не можете прикреплять файлы к сообщениям
    Вы можете скачивать файлы