Ссылка на приватное зеркало нашего сайта всего за 1$. Внимание количество ограничено!!!

2 сезон

iTunes

1 сезон

1

2 сезон

2 сезон

iTunes

1 сезон

RePack

30

Ultimate

ВАЖНО

ИГРА 18+

pack

RePack

MK11
pack

Забери бонус

RePack

jed

!!Акция!!

Alien_Rage

RePack

fifa19

RePack

Assassins Creed: Odyssey

RePack

NEED FOR SPEED™ PAYBACK

4 сезон

9 сезон

Бесстыжие 9 сезон

Все сериалы

все сериалы на PB.wtf

RePack

FAR CRY 5
  

Открытие ведьм / A Discovery of Witches / Сезон: 1 / Серии: 1-8 из 8 (Сара Уокер, Элис Тротон, Сара Уолкер) [2018, Фэнтези, драма, мелодрама, WEB-DLRip] [DVO] (Кубик в Кубе) + [MVO] (Новамедиа) pb.wtf

Открытие ведьм через торрент pb.wtf

Размер: 4.37 GB | Добавлен: 2 года назад | Торрент скачан:71 раз
Скачать  

05-11-2018 15:08 Открытие ведьм Скачать торрент  

Открытие ведьм / A Discovery of Witches

Год выпуска: 2018
Страна: США, Великобритания
Жанр: Фэнтези, драма, мелодрама
Продолжительность: ~ 00:45:00
Перевод 1: Профессиональный (двухголосый закадровый) *Кубик в Кубе*
Перевод 2: Профессиональный (многоголосый закадровый) Новамедиа
Субтитры: нет

Режиссёр: Сара Уокер, Элис Тротон, Сара Уолкер
В ролях: Мэттью Гуд, Тереза Палмер, Оуэн Тил, Малин Буска, Тревор Ив, Аийша Харт, Джулиан Костов, Нила Аалия, Пино Майелло, Алекс Кингстон
Описание: История любви на фоне оксфордской академической жизни. Историк Диана Бишоп специализируется на старинных рукописях и однажды обнаруживает в архивах некий манускрипт, связанный с магией. С этих пор жизнь Дианы превращается в кошмар, зато судьба сводит её с обаятельным генетиком Мэттью Клермонтом. Пикантность ситуации заключается в том, что Диана — потомственная ведьма, а Мэттью — вампир.


Качество: WEB-DLRip
Формат: AVI
Видео: 720x400 (1.80:1), 25 fps, XviD build 73 ~ 1500 kb/s
Аудио 1: 44.1 kHz, MP3, 2 ch, 128 Кбит/с - [Кубик в Кубе]
Аудио 2: 44.1 kHz, MP3, 2 ch, 128 Кбит/с - [Новамедиа]
General
Complete name : E:\XD\Otkrytie.Vedm.S01.2xRus.2018.Lyossik&ExKinoRay\Otkrytie vedm (01 seriya)(2018).WEB-DLRip.avi
Format : AVI
Format/Info : Audio Video Interleave
File size : 560 MiB
Duration : 43 min 43 s
Overall bit rate : 1 792 kb/s
Writing application : VirtualDubMod 1.5.10.3 | www.virtualdub-fr.org || (build 2550/release)
Writing library : VirtualDubMod build 2550/release

Video
ID : 0
Format : MPEG-4 Visual
Format profile : Advanced Simple@L5
Format settings : BVOP1
Format settings, BVOP : 1
Format settings, QPel : No
Format settings, GMC : No warppoints
Format settings, Matrix : Default (H.263)
Codec ID : XVID
Codec ID/Hint : XviD
Duration : 43 min 43 s
Bit rate : 1 455 kb/s
Width : 720 pixels
Height : 400 pixels
Display aspect ratio : 16:9
Frame rate : 25.000 FPS
Color space : YUV
Chroma subsampling : 4:2:0
Bit depth : 8 bits
Scan type : Progressive
Compression mode : Lossy
Bits/(Pixel*Frame) : 0.202
Stream size : 455 MiB (81%)
Writing library : XviD 73

Audio #1
ID : 1
Format : MPEG Audio
Format version : Version 1
Format profile : Layer 3
Format settings : Joint stereo / MS Stereo
Mode : Joint stereo
Mode extension : MS Stereo
Codec ID : 55
Codec ID/Hint : MP3
Duration : 43 min 43 s
Bit rate mode : Constant
Bit rate : 128 kb/s
Channel(s) : 2 channels
Sampling rate : 44.1 kHz
Compression mode : Lossy
Stream size : 40.0 MiB (7%)
Alignment : Split accross interleaves
Writing library : LAME3.99r
Encoding settings : -m j -V 4 -q 2 -lowpass 17 -b 128

Audio #2
ID : 2
Format : MPEG Audio
Format version : Version 1
Format profile : Layer 3
Format settings : Joint stereo / MS Stereo
Mode : Joint stereo
Mode extension : MS Stereo
Codec ID : 55
Codec ID/Hint : MP3
Duration : 43 min 43 s
Bit rate mode : Constant
Bit rate : 128 kb/s
Channel(s) : 2 channels
Sampling rate : 44.1 kHz
Compression mode : Lossy
Stream size : 40.0 MiB (7%)
Alignment : Split accross interleaves
Writing library : LAME3.99r
Encoding settings : -m j -V 4 -q 2 -lowpass 17 -b 128
скриншот  скриншот  скриншот  
pb.wtf



Скачать Открытие ведьм через торрент https://i96.fastpic.ru/big/2018/1027/71/8b4cf04f165d73ac19f0c36050668471.jpg Скачать фильм Открытие ведьм через торрент бесплантно в хорошем качестве Описание: История любви на фоне оксфордской академической жизни. Историк Диана Бишоп специализируется на старинных рукописях и однажды ... 10 10 1
Торрент: Зарегистрирован [2018-11-05 15:08] · скачан: 71 раз
Статус: √ проверено
Размер: 4.37 GB
Как cкачать? Как скачать Открытие ведьм через торрент | qTorrent

% Раздел Тема Автор DL S | L
Зарубежные сериалы [ 23.35 GB ] Открытие ведьм / A Discovery of Witches / Сезон: 1 / Серии: 1-8 из 8 [2018 BDRip 1080p] MVO [Lostfilm] bober100 Скачать
1 | 0
Зарубежные сериалы [ 11.71 GB ] Открытие ведьм / A Discovery of Witches / Сезон: 1 / Серии: 1-8 из 8 [2018 WEBRip 1080p] [MVO] killermax2013 Скачать
1 | 0
Зарубежные сериалы [ 12.65 GB ] Открытие ведьм / A Discovery of Witches / Сезон: 1 / Серии: 1-8 из 8 [2018 HDTVRip 1080p] MVO [Good People] bober100 Скачать
1 | 0
Зарубежные сериалы [ 12.67 GB ] Открытие ведьм / A Discovery of Witches / Сезон: 1 / Серии: 1-8 из 8 [2018 WEB-DL 1080p] [DVO] + [MVO] killermax2013 Скачать
1 | 0
Зарубежные сериалы [ 6.34 GB ] Открытие ведьм / A Discovery of Witches / Сезон: 1 / Серии: 1-8 из 8 [2018 HDTV 720p] MVO [Jaskier] bober100 Скачать
1 | 0
Зарубежные сериалы [ 12.79 GB ] Открытие ведьм / A Discovery of Witches / Сезон: 1 / Серии: 1-8 из 8 [2018 HDTV 1080p] MVO [NewStudio] bober100 Скачать
2 | 0

28-11-2019 20:33  

Отключить всю рекламу на сайте

    Дорогой пользователь! Огромная просьба, поблагодарите релизера, оцените раздачу и оставьте свои комментарий, если Вы скачали Открытие ведьм через торрент бесплатно! Внесите свою лепту в развитие PiratBit!
    Комментировать посты могут только пользователи прошедшие не сложную регистрацию
    Показать сообщения:    

    Открытие ведьм через торрент
    Скачать бесплатно Открытие ведьм
    Открытие ведьм скачать торрент
    Открытие ведьм смотреть онлайн
    Cкачать фильм Открытие ведьм бесплатно
    Открытие ведьм скачать торрент в хорошем качестве
    Открытие ведьм смотреть онлайн бесплатно в хорошем качестве


    Вы не можете начинать темы
    Вы не можете отвечать на сообщения
    Вы не можете редактировать свои сообщения
    Вы не можете удалять свои сообщения
    Вы не можете голосовать в опросах
    Вы не можете прикреплять файлы к сообщениям
    Вы можете скачивать файлы