Ссылка на приватное зеркало нашего сайта всего за 1$. Внимание количество ограничено!!!

2 сезон

iTunes

1 сезон

1

iTunes

iTunes

iTunes

1 сезон

RePack

30

ИГРА 18+

pack

ВАЖНО

!!Акция!!

Alien_RageХит недели

RePack

MK11
pack

Забери бонус

RePack

jed

!!Акция!!

Alien_Rage

RePack

fifa19

RePack

Assassins Creed: Odyssey

RePack

NEED FOR SPEED™ PAYBACK

4 сезон

9 сезон

Бесстыжие 9 сезон

Все сериалы

все сериалы на PB.wtf

RePack

FAR CRY 5
  

Лапси / Сезон: 2 / Серии: 1-8 из 8 (Артем Аксененко) [2019, мистика, триллер, драма, WEB-DLRip] pb.wtf

Лапси через торрент pb.wtf

Размер: 5.12 GB | Добавлен: 1 год 7 мес. назад | Торрент скачан:150 раз
Скачать  

06-03-2019 18:40 Лапси Скачать торрент  

Лапси Год выпуска: 2019
Производство: Россия, Yellow, Black and White, Кинокомпания «Небо»
Жанр: мистика, триллер, драма
Продолжительность: ~00:48:00 серия
Субтитры: нет

Режиссёр: Артем Аксененко

В ролях:

Мария Машкова, Даниил Воробьёв, Диана Пожарская, Антон Кузнецов, Денис Парамонов, Иван Верховых, Наталия Вдовина, Владимир Чуприков, Михаил Химичев, Максим Жегалин, Олег Дуленин, Ирина Чериченко, Алла Иванцова, Борис Хвошнянский, Максим Белбородов

Описание:

В карельской деревне обнаружен штамм нетипичного для местности заболевания — лихорадки Западного Нила. Руководитель НИИ Вирусологии отправляет на разведку эпидемиологов-вирусологов Веру Бойко и Николая Романова. Их связывает непростое прошлое, и соглашаются на совместную командировку они с трудом. В поисках источника вируса Вера и Николай обнаруживают у себя симптомы смертельно опасной болезни. Когда на странном острове Сариола она вдруг отступает, трудности только начинаются. Учёным предстоит разгадать тайну этого места, постичь непростые правила выживания среди его жителей, разобраться в своих отношениях, которые закончились много лет назад, и найти способ вернуться домой, ведь при попытке сбежать симптомы лихорадки возвращаются.


Sample

Качество: WEB-DLRip
Формат: AVI
Видео кодек: XviD
Аудио кодек: AC3

Видео: 720x304 (2.37:1), 23.976 fps, XviD build 73 ~1700 kbps avg, 0.326 bit/pixel
Аудио: 48.0 kHz, AC3 Dolby Digital, 2/0 (L,R) ch, ~ 192 kbps
Раздача ведётся путём добавления новых серий, при каждом добавлении создаётся новый торрент. Чтобы начать докачку новой серии, пользователям необходимо сделать следующее:

- Остановить скачивание.
- Удалить старый торрент у себя из клиента (старые серии удалять не надо).
- Скачать новый торрент и запустить его у себя в клиенте вместо старого, при этом указать клиенту путь в старую папку куда и должно происходить скачивание новых серий.

Ваш клиент при этом должен произвести хеширование (проверку) старой папки (если не производит сам - помогите ему сделать это), и будет докачивать только те серии которых у вас ещё нет. Старые серии при этом не удаляются, а продолжают раздаваться!
Если вы уже удалили старые серии, то предотвратить повторную закачку старых серий можно, отжав галочку в соответствующих местах при запуске нового торрента. По возможности, желательно не удалять старые серии как можно дольше, чтобы релизер не столько продолжал раздавать старые серии, а смог сконцентрироваться на новых.
General
Complete name : D:\Лапси 2019 WEB-DLRip\Лапси s02e01 WEB-DLRip.avi
Format : AVI
Format/Info : Audio Video Interleave
File size : 669 MiB
Duration : 48 min 58 s
Overall bit rate : 1 911 kb/s
Writing application : VirtualDubMod 1.5.10.3 | www.virtualdub-fr.org || (build 2550/release)
Writing library : VirtualDubMod build 2550/release

Video
ID : 0
Format : MPEG-4 Visual
Format profile : Advanced Simple@L5
Format settings : BVOP1
Format settings, BVOP : 1
Format settings, QPel : No
Format settings, GMC : No warppoints
Format settings, Matrix : Default (MPEG)
Codec ID : XVID
Codec ID/Hint : XviD
Duration : 48 min 58 s
Bit rate : 1 709 kb/s
Width : 720 pixels
Height : 304 pixels
Display aspect ratio : 2.35:1
Frame rate : 23.976 (24000/1001) FPS
Color space : YUV
Chroma subsampling : 4:2:0
Bit depth : 8 bits
Scan type : Progressive
Compression mode : Lossy
Bits/(Pixel*Frame) : 0.326
Stream size : 599 MiB (89%)
Writing library : XviD 73

Audio
ID : 1
Format : AC-3
Format/Info : Audio Coding 3
Codec ID : 2000
Duration : 48 min 58 s
Bit rate mode : Constant
Bit rate : 192 kb/s
Channel(s) : 2 channels
Channel positions : Front: L R
Sampling rate : 48.0 kHz
Frame rate : 31.250 FPS (1536 SPF)
Bit depth : 16 bits
Compression mode : Lossy
Stream size : 67.3 MiB (10%)
Alignment : Split accross interleaves
Interleave, duration : 42 ms (1.00 video frame)
Interleave, preload duratio : 500 ms
Service kind : Complete Main
скриншот  скриншот  скриншот  скриншот  

скриншот  скриншот  скриншот  скриншот  
pb.wtf



Скачать Лапси через торрент http://i99.fastpic.ru/big/2018/0211/a1/641510c7c68e23fad01ab82f6b7131a1.jpg Скачать фильм Лапси через торрент бесплантно в хорошем качестве Описание: В карельской деревне обнаружен штамм неичного для местности заболевания — лихорадки Западного Нила. Руководитель НИИ ... 10 10 6
Торрент: Зарегистрирован [2019-03-06 18:40] · скачан: 150 раз
Статус: √ проверено
Размер: 5.12 GB
Как cкачать? Как скачать Лапси через торрент | qTorrent

% Раздел Тема Автор DL S | L
Наши сериалы [ 17.84 GB ] Лапси / Сезон: 2 / Серии: 1-8 из 8 [2019 WEB-DL 1080p] bober100 Скачать
2 | 0
Наши сериалы [ 8.58 GB ] Лапси / Сезон: 2 / Серии: 1-8 из 8 [2019 WEB-DL 720p] bober100 Скачать
1 | 0

28-11-2019 20:33  

Отключить всю рекламу на сайте

06-03-2019 19:25 Лапси Скачать торрент  

класссный сериал на 1 дыханииpb.wtf



    Дорогой пользователь! Огромная просьба, поблагодарите релизера, оцените раздачу и оставьте свои комментарий, если Вы скачали Лапси через торрент бесплатно! Внесите свою лепту в развитие PiratBit!
    Комментировать посты могут только пользователи прошедшие не сложную регистрацию
    Показать сообщения:    

    Лапси через торрент
    Скачать бесплатно Лапси
    Лапси скачать торрент
    Лапси смотреть онлайн
    Cкачать фильм Лапси бесплатно
    Лапси скачать торрент в хорошем качестве
    Лапси смотреть онлайн бесплатно в хорошем качестве


    Вы не можете начинать темы
    Вы не можете отвечать на сообщения
    Вы не можете редактировать свои сообщения
    Вы не можете удалять свои сообщения
    Вы не можете голосовать в опросах
    Вы не можете прикреплять файлы к сообщениям
    Вы можете скачивать файлы