новый адрес
Ссылка на приватное зеркало всего за 1$. Внимание количество ограничено!!!

iTunes

1+1

iTunes

мы

WEB-DL

1

iTunes

Чернобыль

iTunes

Ральф против интернета

Лицензия

ПШазам

Лицензия

Оно 2

Лицензия

30
pack

Вам бонус

ВАЖНО

!!Акция!!

Alien_RageХит недели

RePack

Resident Evil 21

ИГРА 18+

pack

RePack

jed

!!Акция!!

Alien_Rage

RePack

fifa19

RePack

Assassins Creed: Odyssey

RePack

NEED FOR SPEED™ PAYBACK

3 сезон

9 сезон

Бесстыжие 9 сезон

Все сериалы

все сериалы на PB.wtf

RePack

FAR CRY 5
Ребята, катастрофически не хватает 1900р. для оплаты серверов за Октябрь (всвязи с блокировками трафик упал в 3 раза), 1-2р., выручайте.
  

Девушка, которая застряла в паутине / The Girl in the Spider's Web (Федерико Альварес) [2018, триллер, драма, криминал, BDRip-AVC] DUB [Лицензия] pb.wtf

Девушка, которая застряла в паутине через торрент pb.wtf

Раздают: 1 [ 0 KB/s ]
Размер: 1.46 GB | Добавлен: 9 мес. назад | Торрент скачан:164 раза
Скачать  

06-03-2019 19:17 Девушка, которая застряла в паутине Скачать торрент  

Девушка, которая застряла в паутине / The Girl in the Spider's Web
Год выпуска: 2018
Страна: Великобритания, Германия, Швеция, Канада, США
Жанр: триллер, драма, криминал
Продолжительность: 01:55:25
Перевод: Дублированный | Лицензия
Субтитры: Русские (форс., полные)

Режиссер: Федерико Альварес

rating

В ролях:

Клер Фой (Lisbeth Salander), Сверрир Гуднасон (Mikael Blomkvist), Бо Гадсдон (Young Lisbeth Salander), Лакит Стэнфилд (Ed Needham), Сильвия Хукс (Camilla Salander), Карлотта фон Фалькенхайн (Young Camilla Salander), Стивен Мерчант (Frans Balder), Кристофер Конвери (August Balder), Клас Банг (Jan Holtser), Сюннёве Макоди Лунд (Gabriella Grane), Камерон Бриттон (Plague), Вики Крипс (Erika Berger)
Описание:

Хакер Лисбет Саландер и журналист Микаэль Блумквист оказываются втянуты в историю с участием шпионов, киберпреступников и коррумпированных чиновников.

Качество: BDRip-AVC
Формат: MKV

Видео: 976x408 (2.40:1), 23,976 fps, x264 ~1 361 kbps avg, 0.143 bit/pixel
Аудио: 48 kHz, AC3 Dolby Digital, 3/2 (L,C,R,l,r) + LFE ch, ~448.00 kbps avg | RUS (Лицензия)
скриншот  скриншот  скриншот  скриншот  скриншот  

Общее
Уникальный идентификатор : 31839373080381655967600314983294392035 (0x17F40A4AB7BE7A53C751D4E437B756E3)
Полное имя : F:OlLanDGroupThe.Girl.in.the.Spider's.Web.2018.BDRip(AVC).OlLanDGroup.mkv
Формат : Matroska
Версия формата : Version 4 / Version 2
Размер файла : 1,46 Гбайт
Продолжительность : 1 ч. 55 м.
Общий поток : 1811 Кбит/сек
Название фильма : The Girl in the Spider's Web 2018 #TorpedoUK#
Дата кодирования : UTC 2019-03-06 10:42:40
Программа кодирования : mkvmerge v29.0.0 ('Like It Or Not') 64-bit
Библиотека кодирования : libebml v1.3.6 + libmatroska v1.4.9

Видео
Идентификатор : 1
Формат : AVC
Формат/Информация : Advanced Video Codec
Профиль формата : High@L4.1
Параметр CABAC формата : Да
Параметр ReFrames формата : 10 кадров
Идентификатор кодека : V_MPEG4/ISO/AVC
Продолжительность : 1 ч. 55 м.
Битрейт : 1361 Кбит/сек
Ширина : 976 пикселей
Высота : 408 пикселей
Соотношение сторон : 2,40:1
Режим частоты кадров : Постоянный
Частота кадров : 23,976 (24000/1001) кадра/сек
Цветовое пространство : YUV
Субдискретизация насыщенности : 4:2:0
Битовая глубина : 8 бит
Тип развёртки : Прогрессивная
Бит/(Пиксели*Кадры) : 0.143
Размер потока : 1,10 Гбайт (75%)
Библиотека кодирования : x264 core 146 r2538 121396c
Настройки программы : cabac=1 / ref=10 / deblock=1:-3:-3 / analyse=0x3:0x113 / me=umh / subme=11 / psy=1 / psy_rd=0.98:0.04 / mixed_ref=1 / me_range=48 / chroma_me=1 / trellis=2 / 8x8dct=1 / cqm=0 / deadzone=21,11 / fast_pskip=1 / chroma_qp_offset=-3 / threads=6 / lookahead_threads=1 / sliced_threads=0 / nr=0 / decimate=1 / interlaced=0 / bluray_compat=0 / constrained_intra=0 / bframes=11 / b_pyramid=2 / b_adapt=2 / b_bias=0 / direct=3 / weightb=1 / open_gop=0 / weightp=2 / keyint=240 / keyint_min=23 / scenecut=40 / intra_refresh=0 / rc_lookahead=40 / rc=2pass / mbtree=0 / bitrate=1361 / ratetol=1.0 / qcomp=0.60 / qpmin=0 / qpmax=69 / qpstep=4 / cplxblur=20.0 / qblur=0.5 / vbv_maxrate=50000 / vbv_bufsize=62500 / nal_hrd=none / filler=0 / ip_ratio=1.40 / pb_ratio=1.30 / aq=1:1.00
Default : Да
Forced : Нет

Аудио
Идентификатор : 2
Формат : AC-3
Формат/Информация : Audio Coding 3
Расширение режима : CM (complete main)
Параметр Endianness формата : Big
Идентификатор кодека : A_AC3
Продолжительность : 1 ч. 55 м.
Вид битрейта : Постоянный
Битрейт : 448 Кбит/сек
Каналы : 6 каналов
Расположение каналов : Front: L C R, Side: L R, LFE
Частота : 48,0 КГц
Частота кадров : 31,250 кадров/сек (1536 spf)
Битовая глубина : 16 бит
Метод сжатия : С потерями
Размер потока : 370 Мбайт (25%)
Заголовок : Dub [License]
Язык : Russian
Default : Да
Forced : Нет

Текст #1
Идентификатор : 3
Формат : UTF-8
Идентификатор кодека : S_TEXT/UTF8
Идентификатор кодека/Информация : UTF-8 Plain Text
Продолжительность : 1 ч. 51 м.
Битрейт : 0 бит/сек
Count of elements : 14
Размер потока : 732 байт (0%)
Заголовок : Forced
Язык : Russian
Default : Да
Forced : Нет

Текст #2
Идентификатор : 4
Формат : UTF-8
Идентификатор кодека : S_TEXT/UTF8
Идентификатор кодека/Информация : UTF-8 Plain Text
Продолжительность : 1 ч. 53 м.
Битрейт : 38 бит/сек
Count of elements : 731
Размер потока : 32,0 Кбайт (0%)
Заголовок : Full
Язык : Russian
Default : Нет
Forced : Нет

Меню
00:00:00.000 : en:Chapter 01
00:10:23.915 : en:Chapter 02
00:16:32.867 : en:Chapter 03
00:21:05.431 : en:Chapter 04
00:27:34.444 : en:Chapter 05
00:34:20.058 : en:Chapter 06
00:41:41.040 : en:Chapter 07
00:48:24.318 : en:Chapter 08
00:58:39.182 : en:Chapter 09
01:05:56.828 : en:Chapter 10
01:10:31.978 : en:Chapter 11
01:20:03.924 : en:Chapter 12
01:27:18.900 : en:Chapter 13
01:35:05.533 : en:Chapter 14
01:38:04.128 : en:Chapter 15
01:43:16.565 : en:Chapter 16

pb.wtf



Скачать Девушка, которая застряла в паутине через торрент http://img10.lostpic.net/2019/01/26/4fd09db7ac148ff5f9d256627c3ed26c.jpg Скачать фильм Девушка, которая застряла в паутине через торрент бесплантно в хорошем качестве Описание: Хакер Лисбет Саландер и журналист Микаэль Блумквист оказываются втянуты в историю с участием шпионов, киберпреступников и ... 9.2 10 5
Торрент: Зарегистрирован [2019-03-06 19:17] · скачан: 164 раз
Статус: √ проверено
Размер: 1.46 GB
Как cкачать? Как скачать Девушка, которая застряла в паутине через торрент | qTorrent

28-11-2019 20:33  

Отключить всю рекламу на сайте

    Дорогой пользователь! Огромная просьба, поблагодарите релизера, оцените раздачу и оставьте свои комментарий, если Вы скачали Девушка, которая застряла в паутине через торрент бесплатно! Внесите свою лепту в развитие PiratBit!
    Комментировать посты могут только пользователи прошедшие не сложную регистрацию
    Показать сообщения:    

    Девушка, которая застряла в паутине через торрент
    Скачать бесплатно Девушка, которая застряла в паутине
    Девушка, которая застряла в паутине скачать торрент
    Девушка, которая застряла в паутине смотреть онлайн
    Cкачать фильм Девушка, которая застряла в паутине бесплатно
    Девушка, которая застряла в паутине скачать торрент в хорошем качестве
    Девушка, которая застряла в паутине смотреть онлайн бесплатно в хорошем качестве


    Вы не можете начинать темы
    Вы не можете отвечать на сообщения
    Вы не можете редактировать свои сообщения
    Вы не можете удалять свои сообщения
    Вы не можете голосовать в опросах
    Вы не можете прикреплять файлы к сообщениям
    Вы можете скачивать файлы