Ссылка на приватное зеркало нашего сайта всего за 1$. Внимание количество ограничено!!!

2 сезон

iTunes

1 сезон

1

iTunes

iTunes

iTunes

1 сезон

RePack

30

ИГРА 18+

pack

ВАЖНО

!!Акция!!

Alien_RageХит недели

RePack

MK11
pack

Забери бонус

RePack

jed

!!Акция!!

Alien_Rage

RePack

fifa19

RePack

Assassins Creed: Odyssey

RePack

NEED FOR SPEED™ PAYBACK

4 сезон

9 сезон

Бесстыжие 9 сезон

Все сериалы

все сериалы на PB.wtf

RePack

FAR CRY 5
  

Акушерка. Новая жизнь / Сезон: 2 / Серии: 1-8 из 8 (Станислав Либин) [2019, мелодрама, HDTVRip] pb.wtf

Акушерка. Новая жизнь через торрент pb.wtf

Размер: 5.17 GB | Добавлен: 1 год 7 мес. назад | Торрент скачан:56 раз
Скачать  

06-03-2019 19:47 Акушерка. Новая жизнь Скачать торрент  

Акушерка. Новая жизнь Год выпуска: 2019
Страна: Россия
Жанр: мелодрама
Продолжительность: ~00:51:00 серия
Субтитры: нет

Режиссёр: Станислав Либин

В ролях:

Ирина Пегова, Владимир Епифанцев, Александр Макогон, Наталья Гудкова, Валентина Ляпина, Серафима Красникова

Описание:

Главврач роддома Татьяна Скворцова, кажется, достигла всего, о чем может мечтать женщина – успешная карьера, почти взрослая дочь и любимый мужчина рядом. Обжегшись когда-то изменой мужа, Татьяна верит, что на этот раз она будет счастлива. Но как же больно узнать, что новый избранник скрывает от нее свое прошлое, видеть, как он прячет глаза в тот момент, когда она говорит о любви. Как всегда, сбегая от душевной боли, Татьяна с головой погружается в работу. Будучи талантливым врачом, Татьяна помогает женщинам в самых сложных случаях, когда надежды, казалось бы, уже нет. В роддом попадает женщина с тяжелым гипертоническим кризом, готовая умереть ради ребенка.

Реклама: Нет.

Sample

Качество: HDTVRip
Формат: AVI
Видео кодек: XviD
Аудио кодек: AC3

Видео: 720x400 (1.80:1), 25 fps, XviD build 73 ~1600 kbps avg, 0.222 bit/pixel
Аудио: 48.0 kHz, AC3 Dolby Digital, 2/0 (L,R) ch, ~ 192 kbps
Раздача ведётся путём добавления новых серий, при каждом добавлении создаётся новый торрент. Чтобы начать докачку новой серии, пользователям необходимо сделать следующее:

- Остановить скачивание.
- Удалить старый торрент у себя из клиента (старые серии удалять не надо).
- Скачать новый торрент и запустить его у себя в клиенте вместо старого, при этом указать клиенту путь в старую папку куда и должно происходить скачивание новых серий.

Ваш клиент при этом должен произвести хеширование (проверку) старой папки (если не производит сам - помогите ему сделать это), и будет докачивать только те серии которых у вас ещё нет. Старые серии при этом не удаляются, а продолжают раздаваться!
Если вы уже удалили старые серии, то предотвратить повторную закачку старых серий можно, отжав галочку в соответствующих местах при запуске нового торрента. По возможности, желательно не удалять старые серии как можно дольше, чтобы релизер не столько продолжал раздавать старые серии, а смог сконцентрироваться на новых.
General
Complete name : D:\Akusherka .(2019).HDTVRip.Files-x.Akusherka.S02.(2019).HDTVRip.Files-x.avi
Format : AVI
Format/Info : Audio Video Interleave
File size : 663 MiB
Duration : 51 min 28 s
Overall bit rate : 1 801 kb/s
Writing application : VirtualDubMod 1.5.10.3 | www.virtualdub-fr.org || (build 2550/release)
Writing library : VirtualDubMod build 2550/release

Video
ID : 0
Format : MPEG-4 Visual
Format profile : Advanced Simple@L5
Format settings : BVOP1 / Custom Matrix
Format settings, BVOP : 1
Format settings, QPel : No
Format settings, GMC : No warppoints
Format settings, Matrix : Custom
Codec ID : XVID
Codec ID/Hint : XviD
Duration : 51 min 28 s
Bit rate : 1 599 kb/s
Width : 720 pixels
Height : 400 pixels
Display aspect ratio : 16:9
Frame rate : 25.000 FPS
Color space : YUV
Chroma subsampling : 4:2:0
Bit depth : 8 bits
Scan type : Progressive
Compression mode : Lossy
Bits/(Pixel*Frame) : 0.222
Stream size : 589 MiB (89%)
Writing library : XviD 73

Audio
ID : 1
Format : AC-3
Format/Info : Audio Coding 3
Codec ID : 2000
Duration : 51 min 28 s
Bit rate mode : Constant
Bit rate : 192 kb/s
Channel(s) : 2 channels
Channel positions : Front: L R
Sampling rate : 48.0 kHz
Frame rate : 31.250 FPS (1536 SPF)
Bit depth : 16 bits
Compression mode : Lossy
Stream size : 70.7 MiB (11%)
Alignment : Split accross interleaves
Interleave, duration : 40 ms (1.00 video frame)
Interleave, preload duratio : 500 ms
Service kind : Complete Main
скриншот  скриншот  скриншот  скриншот  

скриншот  скриншот  скриншот  скриншот  
pb.wtf



Скачать Акушерка. Новая жизнь через торрент https://i110.fastpic.ru/big/2019/0304/05/536cbd84e1e89088d4a4250e1cc72105.jpg Скачать фильм Акушерка. Новая жизнь через торрент бесплантно в хорошем качестве Описание: Главврач роддома Татьяна Скворцова, кажется, достигла всего, о чем может мечтать женщина – успешная карьера, почти взрослая дочь ... 8.3 10 4
Торрент: Зарегистрирован [2019-03-08 19:08] · скачан: 56 раз
Статус: √ проверено
Размер: 5.17 GB
Как cкачать? Как скачать Акушерка. Новая жизнь через торрент | qTorrent

% Раздел Тема Автор DL S | L
Наши сериалы [ 5.16 GB ] Акушерка. Новая жизнь / Сезон: 2 / Серии: 1-8 из 8 [2019 SATRip-AVC] aleksan55 Скачать
1 | 0
Наши сериалы [ 4.69 GB ] Акушерка. Новая жизнь / Сезон: 2 / Серии: 1-8 из 8 [2019 Мело SATRip] bober100 Скачать
1 | 0

28-11-2019 20:33  

Отключить всю рекламу на сайте

    Дорогой пользователь! Огромная просьба, поблагодарите релизера, оцените раздачу и оставьте свои комментарий, если Вы скачали Акушерка. Новая жизнь через торрент бесплатно! Внесите свою лепту в развитие PiratBit!
    Комментировать посты могут только пользователи прошедшие не сложную регистрацию
    Показать сообщения:    

    Акушерка. Новая жизнь через торрент
    Скачать бесплатно Акушерка. Новая жизнь
    Акушерка. Новая жизнь скачать торрент
    Акушерка. Новая жизнь смотреть онлайн
    Cкачать фильм Акушерка. Новая жизнь бесплатно
    Акушерка. Новая жизнь скачать торрент в хорошем качестве
    Акушерка. Новая жизнь смотреть онлайн бесплатно в хорошем качестве


    Вы не можете начинать темы
    Вы не можете отвечать на сообщения
    Вы не можете редактировать свои сообщения
    Вы не можете удалять свои сообщения
    Вы не можете голосовать в опросах
    Вы не можете прикреплять файлы к сообщениям
    Вы можете скачивать файлы