Ссылка на приватное зеркало нашего сайта всего за 1$. Внимание количество ограничено!!!

2 сезон

iTunes

1 сезон

1

2 сезон

2 сезон

iTunes

1 сезон

RePack

30

Новинка

ВАЖНО

ИГРА 18+

pack

RePack

MK11
pack

Забери бонус

RePack

jed

!!Акция!!

Alien_Rage

RePack

fifa19

RePack

Assassins Creed: Odyssey

RePack

NEED FOR SPEED™ PAYBACK

4 сезон

9 сезон

Бесстыжие 9 сезон

Все сериалы

все сериалы на PB.wtf

RePack

FAR CRY 5
  

Банши / Banshee / Сезон: 1-4 / Серии: 1-38 из 38 (Оле Кристиан Мадсен, Грег Яйтанс, Лони Перистер) [2013, боевик, триллер, драма, криминал, детектив, BDRip-HEVC 1080p, HDTVRip-HEVC 1080p] MVO [Амедиа] pb.wtf

Банши через торрент pb.wtf

Раздают: 2 [ 0 KB/s ]
Размер: 41.82 GB | Добавлен: 1 год 8 мес. назад | Торрент скачан:151 раз
Скачать  

06-03-2019 21:23 Банши Скачать торрент  

Банши / Banshee Год выпуска: 2013
Страна: США
Жанр: боевик, триллер, драма, криминал, детектив
Продолжительность: ~00:50:00 серия
Перевод: Профессиональный многоголосый | Амедиа
Субтитры: отсутствуют

Режиссер: Оле Кристиан Мадсен, Грег Яйтанс, Лони Перистер

rating


В ролях:

Энтони Старр, Ивана Миличевич, Ульрих Томсен, Хун Ли, Фрэнки Фэйзон, Лили Симмонс, Триесте Келли Данн, Рас Блэквелл

Описание:

Лукас Худ — отбывший наказание в тюрьме вор, который некогда предал своих подельников. После отсидки он приезжает в небольшой городок в Пенсильвании, носящий название Банши, где обманом получает пост местного шерифа. Но это не значит, что он забыл своё криминальное прошлое и теперь служит закону. Гангстеры, которых он когда-то предал, всё еще помнят про него и стремятся отомстить. Назревает жесткое противостояние между новоявленным шерифом и его бывшими приятелями. Спокойствие местного населения нарушается, а убийство следует за убийством, когда шериф начинает «наводить порядок» во вверенном его заботам городке...

Качество: BDRip-HEVC 1080p (сезоны: 1-2) | HDTVRip-HEVC 1080p (сезоны: 3-4)
Формат: МР4

Видео: 1920x1080 (16:9), 23.976 fps,MPEG-4 HEVC ~3000 kbps
Аудио: 48.0 kHz, Advanced Audio Codec LC, 2/0 (L,R) ch, ~192 kbps avg
скриншот  скриншот  скриншот  

скриншот  скриншот  скриншот  

Общее
Полное имя : 1x01 - Пилотный эпизод.mp4
Формат : MPEG-4
Профиль формата : Base Media
Идентификатор кодека : isom
Размер файла : 1,30 Гбайт
Продолжительность : 59 м.
Режим общего битрейта : Переменный
Общий поток : 3125 Кбит/сек
Программа кодирования : Lavf55.37.101

Видео
Идентификатор : 1
Формат : HEVC
Формат/Информация : High Efficiency Video Coding
Профиль формата : Main@L4.0
Идентификатор кодека : hev1
Идентификатор кодека/Информация : High Efficiency Video Coding
Продолжительность : 59 м.
Битрейт : 2954 Кбит/сек
Ширина : 1920 пикселей
Высота : 1080 пикселей
Соотношение сторон : 16:9
Режим частоты кадров : Постоянный
Частота кадров : 23,976 кадра/сек
Цветовое пространство : YUV
Субдискретизация насыщенности : 4:2:0
Битовая глубина : 8 бит
Тип развёртки : Прогрессивная
Бит/(Пиксели*Кадры) : 0.059
Размер потока : 1,23 Гбайт (95%)
Язык : English

Аудио
Идентификатор : 2
Формат : AAC
Формат/Информация : Advanced Audio Codec
Профиль формата : LC
Идентификатор кодека : 40
Продолжительность : 59 м.
Вид битрейта : Переменный
Битрейт : 165 Кбит/сек
Максимальный битрейт : 192 Кбит/сек
Каналы : 2 канала
Расположение каналов : Front: L R
Частота : 48,0 КГц
Метод сжатия : С потерями
Размер потока : 70,5 Мбайт (5%)
Язык : Russian

pb.wtf



Скачать Банши через торрент http://img10.lostpic.net/2016/05/23/85583a829924a5adec6ae67aecba2988.png Скачать фильм Банши через торрент бесплантно в хорошем качестве Описание: Лукас Худ — отбывший наказание в тюрьме вор, который некогда предал своих подельников. После отсидки он приезжает в небольшой ... 10 10 9
Торрент: Зарегистрирован [2019-03-07 01:42] · скачан: 151 раз
Статус: √ проверено
Размер: 41.82 GB
Как cкачать? Как скачать Банши через торрент | qTorrent

28-11-2019 20:33  

Отключить всю рекламу на сайте

    Дорогой пользователь! Огромная просьба, поблагодарите релизера, оцените раздачу и оставьте свои комментарий, если Вы скачали Банши через торрент бесплатно! Внесите свою лепту в развитие PiratBit!
    Комментировать посты могут только пользователи прошедшие не сложную регистрацию
    Показать сообщения:    

    Банши через торрент
    Скачать бесплатно Банши
    Банши скачать торрент
    Банши смотреть онлайн
    Cкачать фильм Банши бесплатно
    Банши скачать торрент в хорошем качестве
    Банши смотреть онлайн бесплатно в хорошем качестве


    Вы не можете начинать темы
    Вы не можете отвечать на сообщения
    Вы не можете редактировать свои сообщения
    Вы не можете удалять свои сообщения
    Вы не можете голосовать в опросах
    Вы не можете прикреплять файлы к сообщениям
    Вы можете скачивать файлы