новый адрес
Ссылка на приватное зеркало всего за 1$. Внимание количество ограничено!!!

iTunes

1+1

iTunes

мы

WEB-DL

1

iTunes

Чернобыль

iTunes

Ральф против интернета

Лицензия

ПШазам

Лицензия

Оно 2

Лицензия

30
pack

Вам бонус

ВАЖНО

!!Акция!!

Alien_RageХит недели

RePack

Resident Evil 21

ИГРА 18+

pack

RePack

jed

!!Акция!!

Alien_Rage

RePack

fifa19

RePack

Assassins Creed: Odyssey

RePack

NEED FOR SPEED™ PAYBACK

3 сезон

9 сезон

Бесстыжие 9 сезон

Все сериалы

все сериалы на PB.wtf

RePack

FAR CRY 5
Ребята, катастрофически не хватает 1900р. для оплаты серверов за Октябрь (всвязи с блокировками трафик упал в 3 раза), 1-2р., выручайте.
  

Фаворитка / The Favourite (Йоргос Лантимос) [2018, драма, комедия, биография, история, BDRip] DUB [iTunes] pb.wtf

Фаворитка через торрент pb.wtf

Раздают: 1 [ 0 KB/s ]
Размер: 1.46 GB | Добавлен: 9 мес. назад | Торрент скачан:301 раз
Скачать  

06-03-2019 21:31 Фаворитка Скачать торрент  

Фаворитка / The Favourite Год выпуска: 2018
Страна: Ирландия, Великобритания, США
Жанр: драма, комедия, биография, история
Продолжительность: 01:59:29
Перевод: Дублированный | iTunes
Субтитры: русские (форс. вшитые)

Режиссер: Йоргос Лантимос

rating

В ролях:

Оливия Колман, Рэйчел Вайс, Эмма Стоун, Джо Элвин, Николас Холт, Эмма Делвс, Фэй Дейвней, Пол Суэйн, Дженнифер Уайт, Лилироуз Стивенс

Описание:

Начало XVIII века. Идет война Англии с Францией. Тем не менее, жизнь в королевстве продолжается. Трон занимает болезненная королева Анна, а руководство страной берет на себя ее близкая подруга леди Сара. Когда при дворе появляется новая служанка Эбигейл, Сара попадает под ее очарование и берет девушку под свое крыло. Для Эбигейл это — шанс вернуться к своим аристократическим корням. Как только Сара устает решать вопросы войны и мира, Эбигейл становится лучшим помощником королевы в этих делах. Крепнущая дружба с Анной дает новой фаворитке возможность реализовать свои амбиции. И лучше не вставать у нее на пути!

Качество: BDRip
Формат: AVI

Видео: Xvid 73, 704x384, ~1350 kbps, 23,976 fps
Аудио: русский, AC3, 5.1 ch, 48 kHz, 384 kbps | iTunes
скриншот  скриншот  скриншот  скриншот  скриншот  

General
Полное имя : E:TorrentTheFavouriteBDRip.avi
Формат : AVI
Формат/Информация : Audio Video Interleave
Профиль формата : OpenDML
Размер файла : 1.46 GiB
Продолжительность : 1 h 59 min
Общий поток : 1 745 kb/s
Программа кодирования : XviD4PSP 6.0 / 54.27.101

Video
Идентификатор : 0
Формат : MPEG-4 Visual
Профиль формата : Advanced Simple@L5
Настройки формата : BVOP2 / Custom Matrix
Параметр BVOP формата : 2
Параметр QPel формата : No
Параметр GMC формата : No warppoints
Параметр матрицы формата : Custom
Идентификатор кодека : XVID
Идентификатор кодека/Подсказка : XviD
Продолжительность : 1 h 59 min
Битрейт : 1 350 kb/s
Ширина : 704 pixels
Высота : 384 pixels
Соотношение сторон : 1.85:1
Частота кадров : 23.976 (23976/1000) FPS
Цветовое пространство : YUV
Субдискретизация насыщенности : 4:2:0
Битовая глубина : 8 bits
Тип развёртки : Progressive
Метод сжатия : Lossy
Бит/(Пиксели*Кадры) : 0.208
Размер потока : 1.13 GiB (77%)
Библиотека кодирования : XviD 73

Audio
Идентификатор : 1
Формат : AC-3
Формат/Информация : Audio Coding 3
Идентификатор кодека : 2000
Продолжительность : 1 h 59 min
Вид битрейта : Constant
Битрейт : 384 kb/s
Каналы : 6 channels
Расположение каналов : Front: L C R, Side: L R, LFE
Частота : 48.0 kHz
Частота кадров : 31.250 FPS (1536 SPF)
Битовая глубина : 16 bits
Метод сжатия : Lossy
Размер потока : 328 MiB (22%)
Выравнивание : Aligned on interleaves
Продолжительность промежутка : 32 ms (0.77 video frame)

pb.wtf



Скачать Фаворитка через торрент http://lostpix.com/thumbs/2019-03/06/txstz6ae0m3h9pn1ot9gicfs1.png Скачать фильм Фаворитка через торрент бесплантно в хорошем качестве Описание: Начало XVIII века. Идет война Англии с Францией. Тем не менее, жизнь в королевстве продолжается. Трон занимает болезненная ... 8.5 10 6
Торрент: Зарегистрирован [2019-03-06 21:31] · скачан: 301 раз
Статус: √ проверено
Размер: 1.46 GB
Как cкачать? Как скачать Фаворитка через торрент | qTorrent

% Раздел Тема Автор DL S | L
Фильмы [HD 720p, 1080p] (Хороший звук DUB, MVO) [ 9.71 GB ] Фаворитка / The Favourite [2018 биография история BDRip 1080p] MVO [HDRezka Studio] + bober100 Скачать
5 | 0
Фильмы 2018 [DVDrip, WEB-DLRip, HDrip] (DUB, MVO) [ 1.46 GB ] Фаворитка / The Favourite [2018 биография история BDRip] - [] Twi7ter Скачать
12 | 0
Фильмы 2018 [DVDrip, WEB-DLRip, HDrip] (DUB, MVO) [ 2.18 GB ] Фаворитка / The Favourite [2018 биография история BDRip] - [] Twi7ter Скачать
15 | 1
Фильмы 2018 [DVDrip, WEB-DLRip, HDrip] (DUB, MVO) [ 2.5 GB ] Фаворитка / The Favourite [2018 биография история BDRip-AVC] MVO [HDRezka Studio] + bober100 Скачать
1 | 0
Фильмы 2018 [DVDrip, WEB-DLRip, HDrip] (DUB, MVO) [ 2.13 GB ] Фаворитка / The Favourite [2018 биография история BDRip] bober100 Скачать
8 | 0
Фильмы [HD 720p, 1080p] (Хороший звук DUB, MVO) [ 5.65 GB ] Фаворитка / The Favourite [2018 биография история BDRip 720p] MVO [HDRezka Studio] + bober100 Скачать
3 | 0

28-11-2019 20:33  

Отключить всю рекламу на сайте

    Дорогой пользователь! Огромная просьба, поблагодарите релизера, оцените раздачу и оставьте свои комментарий, если Вы скачали Фаворитка через торрент бесплатно! Внесите свою лепту в развитие PiratBit!
    Комментировать посты могут только пользователи прошедшие не сложную регистрацию
    Показать сообщения:    

    Фаворитка через торрент
    Скачать бесплатно Фаворитка
    Фаворитка скачать торрент
    Фаворитка смотреть онлайн
    Cкачать фильм Фаворитка бесплатно
    Фаворитка скачать торрент в хорошем качестве
    Фаворитка смотреть онлайн бесплатно в хорошем качестве


    Вы не можете начинать темы
    Вы не можете отвечать на сообщения
    Вы не можете редактировать свои сообщения
    Вы не можете удалять свои сообщения
    Вы не можете голосовать в опросах
    Вы не можете прикреплять файлы к сообщениям
    Вы можете скачивать файлы