2 сезон

iTunes

MVO

1

2 сезон

iTunes

iTunes

1 сезон

RePack

30

Новинка

ВАЖНО

ИГРА 18+

pack

RePack

MK11
pack

Легкие деньги

RePack

jed

RePack

fifa19

RePack

RDR2

RePack

NEED FOR SPEED™ PAYBACK

4 сезон

9 сезон

Бесстыжие 9 сезон

Все сериалы

все сериалы на PB.wtf

RePack

FAR CRY 5

Anonymous, доброй ночи, мы не успеваем собрать деньги на оплату серверов за декабрь и январь, помогите нам пожалуйста в это трудное время. В качестве благодарности мы отключим Вам всю рекламу на сайте (укажите свой ник в строку Ваше имя)!

×
  
Magnet ссылка

Мотылек / Papillon (Михаэль Ноер) [2017, триллер, драма, криминал, BDRip 1080p, 60fps] Дубляж - [iTunes] pb.wtf

Мотылек через торрент pb.wtf

Размер: 26.89 GB | Добавлен: 1 год 10 мес. назад | Торрент скачан:104 раза
Скачать  

07-03-2019 13:22 Мотылек Скачать торрент  

Мотылек / Papillon««Величайшая реальная история о побеге»»

Год выпуска: 2017
Страна: Чехия, Испания, США
Жанр: триллер, драма, криминал, детектив
Продолжительность: 02:13:14
Перевод: Профессиональный (полное дублирование) | [iTunes]
Субтитры: английские
Режиссер: Михаэль Ноер
В ролях:

Чарли Ханнэм (Henri Charrière ('Papillon')), Рами Малек (Louis Dega), Роланд Мюллер (Celier), Йоэль Басман (Maturette), Йорик ван Вагенинген (Warden Barrot), Майкл Сока (Julot), Кристофер Фэйрбэнк (Jean Castili), Ив Хьюсон (Nennete), Томми Флэнаган (Masked Breton), Николас Асбари (Commandant), Дамиджан Оклопджич (Doorman), Джейсон Райан (Accountant)
Описание:
Взломщик сейфов по прозвищу Мотылёк получает пожизненный срок и отправляется на каторгу за убийство, которого он не совершал. Когда вокруг враги, а надежда угасает с каждым днём заключения, лишь сила духа может помочь Мотыльку обрести свободу.
Рейтинг:

MPAA: R - Лицам до 17 лет обязательно присутствие взрослого
Качество: BDRip 1080p | 60fps
Формат: MKV
Видео: AVC | 1920 x 800 | 59.940 fps | 25.0 Мбит/сек
Аудио #1: AC-3 | 5.1 | 48 kHz | 384 kbps | 16 bit / Дубляж - iTunes / RUS
Аудио #2: DTS-HD MA| 5.1 | 48 kHz | 1510 kbps | 24 bit | Оригинал / ENG
General
Unique ID : 202436196743424410258504180227994146319 (0x984BCB1699AB07A4219FF68D3F65D60F)
Complete name : D:\2018 Мотылёк BDRip 1080p 60 fps.mkv
Format : Matroska
Format version : Version 4 / Version 2
File size : 26.9 GiB
Duration : 2h 13mn
Overall bit rate mode : Variable
Overall bit rate : 28.9 Mbps
Movie name : Мотылёк / Papillon (2017)
Encoded date : UTC 2018-12-17 19:06:00
Writing application : mkvmerge v22.0.0 ('At The End Of The World') 64-bit
Writing library : libebml v1.3.5 + libmatroska v1.4.8
DURATION : 02:12:35.563000000
NUMBER_OF_FRAMES : 1227
NUMBER_OF_BYTES : 32230
_STATISTICS_WRITING_APP : mkvmerge v22.0.0 ('At The End Of The World') 64-bit
_STATISTICS_WRITING_DATE_UTC : 2018-12-17 19:06:00
_STATISTICS_TAGS : BPS DURATION NUMBER_OF_FRAMES NUMBER_OF_BYTES
Video #1
ID : 1
Format : AVC
Format/Info : Advanced Video Codec
Format profile : High@L4.1
Format settings, CABAC : Yes
Format settings, ReFrames : 5 frames
Codec ID : V_MPEG4/ISO/AVC
Duration : 2h 13mn
Bit rate : 25.0 Mbps
Width : 1 920 pixels
Height : 800 pixels
Display aspect ratio : 2.40:1
Frame rate mode : Variable
Frame rate : 59.940 fps
Color space : YUV
Chroma subsampling : 4:2:0
Bit depth : 8 bits
Scan type : Progressive
Bits/(Pixel*Frame) : 0.272
Stream size : 23.6 GiB (88%)
Writing library : x264 core 146 r2538 121396c
Encoding settings : cabac=1 / ref=5 / deblock=1:-2:-2 / analyse=0x3:0x113 / me=umh / subme=9 / psy=1 / psy_rd=1.00:0.25 / mixed_ref=1 / me_range=32 / chroma_me=1 / trellis=2 / 8x8dct=1 / cqm=0 / deadzone=6,6 / fast_pskip=1 / chroma_qp_offset=-4 / threads=12 / lookahead_threads=2 / sliced_threads=0 / nr=0 / decimate=0 / interlaced=0 / bluray_compat=0 / constrained_intra=0 / bframes=3 / b_pyramid=2 / b_adapt=2 / b_bias=0 / direct=3 / weightb=1 / open_gop=0 / weightp=2 / keyint=600 / keyint_min=60 / scenecut=40 / intra_refresh=0 / rc_lookahead=60 / rc=2pass / mbtree=1 / bitrate=25000 / ratetol=1.0 / qcomp=0.80 / qpmin=0 / qpmax=69 / qpstep=4 / cplxblur=20.0 / qblur=0.5 / vbv_maxrate=50000 / vbv_bufsize=50000 / nal_hrd=none / filler=0 / ip_ratio=1.10 / aq=1:0.50
Language : English
Default : Yes
Forced : No
DURATION : 02:13:14.577000000
NUMBER_OF_FRAMES : 479189
NUMBER_OF_BYTES : 24840873076
_STATISTICS_WRITING_APP : mkvmerge v22.0.0 ('At The End Of The World') 64-bit
_STATISTICS_WRITING_DATE_UTC : 2018-12-17 19:06:00
_STATISTICS_TAGS : BPS DURATION NUMBER_OF_FRAMES NUMBER_OF_BYTES
Audio #2
ID : 2
Format : AC-3
Format/Info : Audio Coding 3
Mode extension : CM (complete main)
Format settings, Endianness : Big
Codec ID : A_AC3
Duration : 2h 13mn
Bit rate mode : Constant
Bit rate : 384 Kbps
Channel(s) : 6 channels
Channel positions : Front: L C R, Side: L R, LFE
Sampling rate : 48.0 KHz
Bit depth : 16 bits
Compression mode : Lossy
Stream size : 366 MiB (1%)
Title : Дублированный (iTunes)
Language : Russian
Default : Yes
Forced : No
Audio #3
ID : 3
Format : DTS
Format/Info : Digital Theater Systems
Format profile : MA / Core
Codec ID : A_DTS
Duration : 2h 13mn
Bit rate mode : Variable
Bit rate : 2 599 Kbps / 1 510 Kbps
Channel(s) : 6 channels
Channel positions : Front: L C R, Side: L R, LFE
Sampling rate : 48.0 KHz
Bit depth : 24 bits
Compression mode : Lossless / Lossy
Language : English
Default : No
Forced : No
Text #4
ID : 4
Format : UTF-8
Codec ID : S_TEXT/UTF8
Codec ID/Info : UTF-8 Plain Text
Title : SDH
Language : English
Default : No
Forced : No
Menu
00:00:00.000 : en:Chapter 1
00:08:16.621 : en:Chapter 2
00:16:47.590 : en:Chapter 3
00:21:25.910 : en:Chapter 4
00:26:31.965 : en:Chapter 5
00:30:39.796 : en:Chapter 6
00:34:10.799 : en:Chapter 7
00:44:51.147 : en:Chapter 8
00:52:54.588 : en:Chapter 9
00:59:03.665 : en:Chapter 10
01:04:12.891 : en:Chapter 11
01:12:18.334 : en:Chapter 12
01:20:35.372 : en:Chapter 13
01:24:08.418 : en:Chapter 14
01:35:19.547 : en:Chapter 15
01:40:53.047 : en:Chapter 16
01:47:10.883 : en:Chapter 17
01:57:03.016 : en:Chapter 18
02:02:58.913 : en:Chapter 19
02:05:57.550 : en:Chapter 20
pb.wtf



Скачать Мотылек через торрент https://b.radikal.ru/b40/1903/9f/f20de5d1043b.png Скачать фильм Мотылек через торрент бесплантно в хорошем качестве Описание: Взломщик сейфов по прозвищу Мотылёк получает пожизненный срок и отправляется на каторгу за убийство, которого он не совершал. ... 8.7 10 7
Торрент: Зарегистрирован [2019-03-07 13:22] · скачан: 104 раз
Статус: √ проверено
Размер: 26.89 GB
Как cкачать? Как скачать Мотылек через торрент | UTorrent

% Раздел Тема Автор DL S | L
Фильмы (Blu-ray, BD-Remux, HDDVD) [ 36.96 GB ] Мотылек / Papillon [2017 BD Remux 1080p] [US Transfer] DUB [] bober100 Скачать
1 | 0
Фильмы [HD 720p, 1080p] (Хороший звук DUB, MVO) [ 10 GB ] Мотылек / Papillon [2017 BDRip 720p] DUB [] bober100 Скачать
1 | 0
Фильмы [HD 720p, 1080p] (Хороший звук DUB, MVO) [ 14.96 GB ] Мотылек / Papillon [2017 BDRip 1080p] DUB [] bober100 Скачать
1 | 0
Фильмы 2017 [DVDrip, WEB-DLRip, HDrip] (DUB, MVO) [ 1.46 GB ] Мотылек / Papillon [2017 BDRip] - [] Twi7ter Скачать
2 | 0
Фильмы 2017 [DVDrip, WEB-DLRip, HDrip] (DUB, MVO) [ 2.18 GB ] Мотылек / Papillon [2017 BDRip] - [] Twi7ter Скачать
1 | 0
Фильмы [HD 720p, 1080p] (Хороший звук DUB, MVO) [ 4.73 GB ] Мотылек / Papillon [2017 BDRip 1080p HEVC ()] Мичман37 Скачать
1 | 0
Видео для КПК и Смартфонов [ 506 MB ] Мотылек / Papillon [2017 HDRip КПК] sergey82 Скачать
1 | 0

28-11-2019 20:33  

Отключить всю рекламу на сайте

28-04-2019 20:13 Мотылек Скачать торрент  

скорости бать! спасибо за труты! pb.wtf



    Дорогой пользователь! Огромная просьба, поблагодарите релизера, оцените раздачу и оставьте свои комментарий, если Вы скачали Мотылек через торрент бесплатно! Внесите свою лепту в развитие PiratBit!
    Комментировать посты могут только пользователи прошедшие не сложную регистрацию
    Показать сообщения:    

    Мотылек через торрент
    Скачать бесплатно Мотылек
    Мотылек скачать торрент
    Мотылек смотреть онлайн
    Cкачать фильм Мотылек бесплатно
    Мотылек скачать торрент в хорошем качестве
    Мотылек смотреть онлайн бесплатно в хорошем качестве


    Вы не можете начинать темы
    Вы не можете отвечать на сообщения
    Вы не можете редактировать свои сообщения
    Вы не можете удалять свои сообщения
    Вы не можете голосовать в опросах
    Вы не можете прикреплять файлы к сообщениям
    Вы можете скачивать файлы