Ссылка на приватное зеркало нашего сайта всего за 1$. Внимание количество ограничено!!!

2 сезон

iTunes

1 сезон

1

2 сезон

2 сезон

iTunes

1 сезон

RePack

30

Новинка

ВАЖНО

ИГРА 18+

pack

RePack

MK11
pack

Забери бонус

RePack

jed

!!Акция!!

Alien_Rage

RePack

fifa19

RePack

Assassins Creed: Odyssey

RePack

NEED FOR SPEED™ PAYBACK

4 сезон

9 сезон

Бесстыжие 9 сезон

Все сериалы

все сериалы на PB.wtf

RePack

FAR CRY 5
  

Белое золото / White Gold / Сезон: 1 / Серии: 1-6 из 6 (Деймон Бизли / Damon Beesley) [2017, комедия, HDTV 1080p] 2x[MVO] (Jaskier, IdeaFilm) pb.wtf

Белое золото через торрент pb.wtf

Размер: 4.26 GB | Добавлен: 1 год 8 мес. назад | Торрент скачан:14 раз
Скачать  

07-03-2019 17:03 Белое золото Скачать торрент  

Белое золото - Первый сезонWhite Gold - The First Season
Год выпуска: 2017
Страна: Великобритания
Производство: BBC Two
Жанр: комедия
Продолжительность: 00:30:00
Перевод #1: Профессиональный (многоголосый закадровый) Jaskier
Перевод #2: Любительский (многоголосый закадровый) IdeaFilm

Автор идеи: Деймон Бизли / Damon Beesley

В ролях: Эд Вествик, Джо Томас, Джеймс Бакли, Линзи Коккер, Найджел Линдсэй, Лорен О'Рурк, Бобби Соллдридж, Лоррэйн Брюс, Ли Росс и др.
Описание: Рассказ о престижном салоне пластиковых окон в Эссексе, в котором заправляет харизматичный продавец Винсент — умный, красивый и крутой. Он с радостью нарушит правила, если это позволит ему что-нибудь продать.
|

Качество: HDTV 1080p (MTB)
Формат: MKV
Видео: x264, 1920x1080 (16:9), 25.000 fps, ~2910 kbps avg, 0.056 bit/pixel
Аудио #1: Russian 48.0 KHz, AC3, 2 (Front: L R) ch, ~192.00 kbps avg |Jaskier|
Аудио #2: Russian 48.0 KHz, AC3, 2 (Front: L R) ch, ~192.00 kbps avg |IdeaFilm|
Аудио #3: English 48.0 KHz, AC3, 2 (Front: L R) ch, ~192.00 kbps avg |Original|
Субтитры: английские (SDH)
Сборка и работа со звуком - whip93.
General
Unique ID : 182812380881634258431879148007391969854 (0x89886244494BA1A28C19ED3FBE33423E)
Complete name : C:\Сериалы\White Gold - The First Season - whip93\White.Gold.S01E01.Salesmen.Are.Like.Vampires.1080p.HDTV.DD2.0.x264.-whip93.mkv
Format : Matroska
Format version : Version 4 / Version 2
File size : 755 MiB
Duration : 29mn 41s
Overall bit rate : 3 555 Kbps
Movie name : Белое золото | White Gold (S01E01) - Release by whip93
Encoded date : UTC 2017-07-10 11:05:39
Writing application : mkvmerge v6.1.0 ('Old Devil') built on Mar 4 2013 09:10:42
Writing library : libebml v1.3.0 + libmatroska v1.4.0

Video
ID : 1
Format : AVC
Format/Info : Advanced Video Codec
Format profile : High@L4
Format settings, CABAC : Yes
Format settings, ReFrames : 4 frames
Format settings, GOP : M=8, N=24
Codec ID : V_MPEG4/ISO/AVC
Duration : 29mn 41s
Bit rate : 2 908 Kbps
Width : 1 920 pixels
Height : 1 080 pixels
Display aspect ratio : 16:9
Frame rate mode : Constant
Frame rate : 25.000 fps
Standard : Component
Color space : YUV
Chroma subsampling : 4:2:0
Bit depth : 8 bits
Scan type : MBAFF
Scan order : Top Field First
Bits/(Pixel*Frame) : 0.056
Stream size : 618 MiB (82%)
Title : Mastered by whip93
Language : English
Default : Yes
Forced : No
Color range : Limited
Color primaries : BT.709
Transfer characteristics : BT.709
Matrix coefficients : BT.709

Audio #1
ID : 2
Format : AC-3
Format/Info : Audio Coding 3
Mode extension : CM (complete main)
Format settings, Endianness : Big
Codec ID : A_AC3
Duration : 29mn 41s
Bit rate mode : Constant
Bit rate : 192 Kbps
Channel(s) : 2 channels
Channel positions : Front: L R
Sampling rate : 48.0 KHz
Compression mode : Lossy
Stream size : 40.8 MiB (5%)
Title : MVO (Jaskier)
Language : Russian
Default : Yes
Forced : No

Audio #2
ID : 3
Format : AC-3
Format/Info : Audio Coding 3
Mode extension : CM (complete main)
Format settings, Endianness : Big
Codec ID : A_AC3
Duration : 29mn 41s
Bit rate mode : Constant
Bit rate : 192 Kbps
Channel(s) : 2 channels
Channel positions : Front: L R
Sampling rate : 48.0 KHz
Compression mode : Lossy
Stream size : 40.8 MiB (5%)
Title : MVO (IdeaFilm)
Language : Russian
Default : No
Forced : No

Audio #3
ID : 4
Format : AC-3
Format/Info : Audio Coding 3
Mode extension : CM (complete main)
Format settings, Endianness : Big
Codec ID : A_AC3
Duration : 29mn 41s
Bit rate mode : Constant
Bit rate : 192 Kbps
Channel(s) : 2 channels
Channel positions : Front: L R
Sampling rate : 48.0 KHz
Compression mode : Lossy
Stream size : 40.8 MiB (5%)
Title : Original
Language : English
Default : No
Forced : No

Text
ID : 5
Format : UTF-8
Codec ID : S_TEXT/UTF8
Codec ID/Info : UTF-8 Plain Text
Title : Original (SDH)
Language : English
Default : No
Forced : No
скриншот  скриншот  скриншот  

pb.wtf



Скачать Белое золото через торрент http://i2.imageban.ru/out/2017/07/10/906478fb1e31af6f8a7d7d9224241e1a.jpg Скачать фильм Белое золото через торрент бесплантно в хорошем качестве Описание: Рассказ о престижном салоне пластиковых окон в Эссексе, в котором заправляет харизматичный продавец Винсент — умный, красивый и ... 10 10 1
Торрент: Зарегистрирован [2019-03-07 17:03] · скачан: 14 раз
Статус: √ проверено
Размер: 4.26 GB
Как cкачать? Как скачать Белое золото через торрент | qTorrent

% Раздел Тема Автор DL S | L
Зарубежные сериалы [ 3.07 GB ] Белое золото / White Gold / Сезон: 2 / Серии: 1-6 из 6 [2019 HDTV 720p] [MVO] killermax2013 Скачать
1 | 0
Зарубежные сериалы [ 4.71 GB ] Белое золото / White Gold / Сезон: 2 / Серии: 1-6 из 6 [2019 HDTV 1080p] [MVO] killermax2013 Скачать
1 | 0

28-11-2019 20:33  

Отключить всю рекламу на сайте

    Дорогой пользователь! Огромная просьба, поблагодарите релизера, оцените раздачу и оставьте свои комментарий, если Вы скачали Белое золото через торрент бесплатно! Внесите свою лепту в развитие PiratBit!
    Комментировать посты могут только пользователи прошедшие не сложную регистрацию
    Показать сообщения:    

    Белое золото через торрент
    Скачать бесплатно Белое золото
    Белое золото скачать торрент
    Белое золото смотреть онлайн
    Cкачать фильм Белое золото бесплатно
    Белое золото скачать торрент в хорошем качестве
    Белое золото смотреть онлайн бесплатно в хорошем качестве


    Вы не можете начинать темы
    Вы не можете отвечать на сообщения
    Вы не можете редактировать свои сообщения
    Вы не можете удалять свои сообщения
    Вы не можете голосовать в опросах
    Вы не можете прикреплять файлы к сообщениям
    Вы можете скачивать файлы