Ссылка на приватное зеркало нашего сайта всего за 1$. Внимание количество ограничено!!!

2 сезон

iTunes

1 сезон

1

2 сезон

2 сезон

iTunes

1 сезон

RePack

30

Новинка

ВАЖНО

ИГРА 18+

pack

RePack

MK11
pack

Забери бонус

RePack

jed

!!Акция!!

Alien_Rage

RePack

fifa19

RePack

Assassins Creed: Odyssey

RePack

NEED FOR SPEED™ PAYBACK

4 сезон

9 сезон

Бесстыжие 9 сезон

Все сериалы

все сериалы на PB.wtf

RePack

FAR CRY 5
  

Торговый пункт / Trading Paint (Каржан Кадер) [2019, боевик, WEB-DL 1080p] MVO [HDRezka Studio] pb.wtf

Торговый пункт через торрент pb.wtf

Раздают: 1 [ 0 KB/s ]
Размер: 3.11 GB | Добавлен: 1 год 8 мес. назад | Торрент скачан:98 раз
Скачать  

07-03-2019 18:31 Торговый пункт Скачать торрент  

Торговый пункт / Trading Paint Год выпуска: 2019
Страна: Испания, США
Жанр: боевик
Продолжительность: 01:27:14
Перевод: Профессиональный (многоголосый) | HDRezka Studio
Субтитры: English

Режиссер: Каржан Кадер

rating

В ролях:

Джон Траволта, Розабелла Лауренти Селлерс, Майкл Мэдсен, Бэрри Корбин, Шенайя Твейн, Кевин Данн, Бак Тейлор, Тоби Себастьян, Луис Да Силва мл., Джен Бэйкер

Описание:

Заслуженный автогонщик Сэм Манро и его сын, такой же гонщик из маленького городка, решают свои семейные и профессиональные проблемы, балансируя между конкуренцией, эго, обидой и враждой с соперником в гонках, чтобы стать сильнее в других сферах жизни.

Качество: WEB-DL 1080p
Формат: MKV

Видео: AVC, 1908x792 (2.40:1), 23.976 fps, 4 532 kb/s
Аудио#1: AC-3, 48.0 KHz, 2 ch, 192 Kbps, CBR (Russian)
Аудио#2: AC-3, 48.0 KHz, 6 ch, 384 Kbps, CBR (English)
скриншот  скриншот  скриншот  скриншот  

General
Unique ID : 220292765146125033141654349136372948276 (0xA5BAD7E2076BF854B2AF6F74AA4BDD34)
Complete name : Trading.Paint.2019.1080p.WEB-DL.mkv
Format : Matroska
Format version : Version 4
File size : 3.11 GiB
Duration : 1 h 27 min
Overall bit rate : 5 110 kb/s
Encoded date : UTC 2019-03-07 11:20:00
Writing application : mkvmerge v8.3.0 ('Over the Horizon') 64bit
Writing library : libebml v1.3.1 + libmatroska v1.4.2

Video
ID : 1
Format : AVC
Format/Info : Advanced Video Codec
Format profile : High@L4
Format settings : CABAC / 5 Ref Frames
Format settings, CABAC : Yes
Format settings, ReFrames : 5 frames
Codec ID : V_MPEG4/ISO/AVC
Duration : 1 h 27 min
Bit rate : 4 532 kb/s
Width : 1 908 pixels
Height : 792 pixels
Display aspect ratio : 2.40:1
Frame rate mode : Constant
Frame rate : 23.976 (24000/1001) FPS
Color space : YUV
Chroma subsampling : 4:2:0
Bit depth : 8 bits
Scan type : Progressive
Bits/(Pixel*Frame) : 0.125
Stream size : 2.76 GiB (89%)
Language : English
Default : Yes
Forced : No
Color range : Limited
Color primaries : BT.709
Transfer characteristics : BT.709
Matrix coefficients : BT.709

Audio #1
ID : 2
Format : AC-3
Format/Info : Audio Coding 3
Commercial name : Dolby Digital
Codec ID : A_AC3
Duration : 1 h 27 min
Bit rate mode : Constant
Bit rate : 192 kb/s
Channel(s) : 2 channels
Channel layout : L R
Sampling rate : 48.0 kHz
Frame rate : 31.250 FPS (1536 SPF)
Bit depth : 16 bits
Compression mode : Lossy
Delay relative to video : -42 ms
Stream size : 120 MiB (4%)
Title : HDRezka Studio
Language : Russian
Default : Yes
Forced : No

Audio #2
ID : 3
Format : AC-3
Format/Info : Audio Coding 3
Commercial name : Dolby Digital
Codec ID : A_AC3
Duration : 1 h 27 min
Bit rate mode : Constant
Bit rate : 384 kb/s
Channel(s) : 6 channels
Channel layout : L R C LFE Ls Rs
Sampling rate : 48.0 kHz
Frame rate : 31.250 FPS (1536 SPF)
Bit depth : 16 bits
Compression mode : Lossy
Delay relative to video : -42 ms
Stream size : 240 MiB (8%)
Language : English
Default : No
Forced : No

Text
ID : 4
Format : UTF-8
Codec ID : S_TEXT/UTF8
Codec ID/Info : UTF-8 Plain Text
Duration : 1 h 21 min
Bit rate : 64 b/s
Count of elements : 1059
Stream size : 38.5 KiB (0%)
Language : English
Default : No
Forced : No

Menu
00:00:00.000 : en:1
00:08:57.000 : en:2
00:19:15.000 : en:3
00:26:47.000 : en:4
00:38:25.000 : en:5
00:48:20.000 : en:6
00:59:15.000 : en:7
01:08:49.000 : en:8
01:21:01.000 : en:9

pb.wtf



Скачать Торговый пункт через торрент https://i5.imageban.ru/out/2019/03/07/2a2d4045ea537bee32f231129d68c57c.png Скачать фильм Торговый пункт через торрент бесплантно в хорошем качестве Описание: Заслуженный автогонщик Сэм Манро и его сын, такой же гонщик из маленького городка, решают свои семейные и профессиональные ... 10 10 4
Торрент: Зарегистрирован [2019-03-07 18:31] · скачан: 98 раз
Статус: T временная
Размер: 3.11 GB
Как cкачать? Как скачать Торговый пункт через торрент | qTorrent

% Раздел Тема Автор DL S | L
T Фильмы 2019-2020 [DVDrip, WEB-DLRip, HDrip] (DUB, MVO) [ 1.49 GB ] Бок о бок / Торговый пункт / Trading Paint [2019 BDRip-AVC] MVO [HDRezka Studio] - ExKinoRay Enigma2010 Скачать
128 | 3
T Фильмы [HD 720p, 1080p] (Хороший звук DUB, MVO) [ 7.16 GB ] Бок о бок / Торговый пункт / Trading Paint [2019 BDRip 1080p] MVO [HDrezka Studio] bober100 Скачать
1 | 0
T Фильмы 2019-2020 [DVDrip, WEB-DLRip, HDrip] (DUB, MVO) [ 1.44 GB ] Торговый пункт / Trading Paint [2019 WEB-DLRip] [MVO] killermax2013 Скачать
1 | 0

28-11-2019 20:33  

Отключить всю рекламу на сайте

    Дорогой пользователь! Огромная просьба, поблагодарите релизера, оцените раздачу и оставьте свои комментарий, если Вы скачали Торговый пункт через торрент бесплатно! Внесите свою лепту в развитие PiratBit!
    Комментировать посты могут только пользователи прошедшие не сложную регистрацию
    Показать сообщения:    

    Торговый пункт через торрент
    Скачать бесплатно Торговый пункт
    Торговый пункт скачать торрент
    Торговый пункт смотреть онлайн
    Cкачать фильм Торговый пункт бесплатно
    Торговый пункт скачать торрент в хорошем качестве
    Торговый пункт смотреть онлайн бесплатно в хорошем качестве


    Вы не можете начинать темы
    Вы не можете отвечать на сообщения
    Вы не можете редактировать свои сообщения
    Вы не можете удалять свои сообщения
    Вы не можете голосовать в опросах
    Вы не можете прикреплять файлы к сообщениям
    Вы можете скачивать файлы