новый адрес
Ссылка на приватное зеркало всего за 1$. Внимание количество ограничено!!!

iTunes

1+1

iTunes

мы

WEB-DL

1

iTunes

Чернобыль

iTunes

Ральф против интернета

Лицензия

ПШазам

Лицензия

Оно 2

Лицензия

30
pack

Вам бонус

ВАЖНО

!!Акция!!

Alien_RageХит недели

RePack

Resident Evil 21

ИГРА 18+

pack

RePack

jed

!!Акция!!

Alien_Rage

RePack

fifa19

RePack

Assassins Creed: Odyssey

RePack

NEED FOR SPEED™ PAYBACK

3 сезон

9 сезон

Бесстыжие 9 сезон

Все сериалы

все сериалы на PB.wtf

RePack

FAR CRY 5
Ребята, катастрофически не хватает 1900р. для оплаты серверов за Октябрь (всвязи с блокировками трафик упал в 3 раза), 1-2р., выручайте.
  

22 мили / Mile 22 (Питер Берг) [2018, боевик, триллер, BDRip-AVC] DUB [Лицензия] pb.wtf

22 мили через торрент pb.wtf

Раздают: 3 [ 0 KB/s ]
Размер: 1.57 GB | Добавлен: 8 мес. назад | Торрент скачан:281 раз
Скачать  

07-03-2019 23:48 22 мили Скачать торрент  

22 мили / Mile 22
Год выпуска: 2018
Страна: США
Жанр: боевик, триллер
Продолжительность: 01:34:40
Перевод: Дублированный | Лицензия
Субтитры: Русские (полные)

Режиссер: Питер Берг

rating

В ролях:

Марк Уолберг (James Silva), Лорен Кохэн (Alice Kerr), Ико Уайс (Li Noor), Джон Малкович (Bishop), Ронда Раузи (Sam Snow), Карло Альбан (William Douglas III), Наталья Губская (Vera), Сиэль (Queen), Сэм Медина (Axel), Кит А. Болден (King), Дженик Хендрикс (Knight), Билли Смит (Rook)
Описание:

Призраки - элитный отряд сверхсекретной разведки: официально они не существуют, но на самом деле - реальны. Они решают задачи, когда старые методы уже не работают, и всегда добиваются поставленной цели. Суперагенту отряда при поддержке ЦРУ предстоит непростая миссия: тайно вывести из Индонезии полицейского, владеющего доказательствами коррупции в высших политических кругах. До спасительного самолета им предстоит преодолеть 22 смертельно опасные мили.

Качество: BDRip-AVC
Формат: MKV

Видео: 1024x426 (2.40:1), 23,976 fps, x264 ~1 937 kbps avg, 0.185 bit/pixel
Аудио: 48 kHz, AC3 Dolby Digital, 3/2 (L,C,R,l,r) + LFE ch, ~448.00 kbps avg | RUS (Лицензия)
скриншот  скриншот  скриншот  скриншот  скриншот  

Общее
Уникальный идентификатор : 74540393695798993674059770340425624706 (0x3813F5272472DAA170A89CBC0B146C82)
Полное имя : F:OlLanDGroupMile.22.2018.BDRip(AVC).OllanDGroup.mkv
Формат : Matroska
Версия формата : Version 4 / Version 2
Размер файла : 1,57 Гбайт
Продолжительность : 1 ч. 34 м.
Общий поток : 2380 Кбит/сек
Название фильма : Mile.22.2018 #TorpedoUK#
Дата кодирования : UTC 2019-03-07 23:21:45
Программа кодирования : mkvmerge v29.0.0 ('Like It Or Not') 64-bit
Библиотека кодирования : libebml v1.3.6 + libmatroska v1.4.9

Видео
Идентификатор : 1
Формат : AVC
Формат/Информация : Advanced Video Codec
Профиль формата : High@L4.1
Параметр CABAC формата : Да
Параметр ReFrames формата : 10 кадров
Идентификатор кодека : V_MPEG4/ISO/AVC
Продолжительность : 1 ч. 34 м.
Битрейт : 1937 Кбит/сек
Ширина : 1024 пикселя
Высота : 426 пикселей
Соотношение сторон : 2,40:1
Режим частоты кадров : Постоянный
Частота кадров : 23,976 (24000/1001) кадра/сек
Цветовое пространство : YUV
Субдискретизация насыщенности : 4:2:0
Битовая глубина : 8 бит
Тип развёртки : Прогрессивная
Бит/(Пиксели*Кадры) : 0.185
Размер потока : 1,28 Гбайт (81%)
Библиотека кодирования : x264 core 146 r2538 121396c
Настройки программы : cabac=1 / ref=10 / deblock=1:-3:-3 / analyse=0x3:0x113 / me=umh / subme=11 / psy=1 / psy_rd=0.99:0.04 / mixed_ref=1 / me_range=48 / chroma_me=1 / trellis=2 / 8x8dct=1 / cqm=0 / deadzone=21,11 / fast_pskip=1 / chroma_qp_offset=-3 / threads=6 / lookahead_threads=1 / sliced_threads=0 / nr=0 / decimate=1 / interlaced=0 / bluray_compat=0 / constrained_intra=0 / bframes=11 / b_pyramid=2 / b_adapt=2 / b_bias=0 / direct=3 / weightb=1 / open_gop=0 / weightp=2 / keyint=240 / keyint_min=23 / scenecut=40 / intra_refresh=0 / rc_lookahead=40 / rc=2pass / mbtree=0 / bitrate=1937 / ratetol=1.0 / qcomp=0.60 / qpmin=0 / qpmax=69 / qpstep=4 / cplxblur=20.0 / qblur=0.5 / vbv_maxrate=50000 / vbv_bufsize=62500 / nal_hrd=none / filler=0 / ip_ratio=1.40 / pb_ratio=1.30 / aq=1:1.00
Язык : English
Default : Да
Forced : Нет

Аудио
Идентификатор : 2
Формат : AC-3
Формат/Информация : Audio Coding 3
Расширение режима : CM (complete main)
Параметр Endianness формата : Big
Идентификатор кодека : A_AC3
Продолжительность : 1 ч. 34 м.
Вид битрейта : Постоянный
Битрейт : 448 Кбит/сек
Каналы : 6 каналов
Расположение каналов : Front: L C R, Side: L R, LFE
Частота : 48,0 КГц
Частота кадров : 31,250 кадров/сек (1536 spf)
Битовая глубина : 16 бит
Метод сжатия : С потерями
Размер потока : 303 Мбайт (19%)
Заголовок : DUB [iTunes]
Язык : Russian
Default : Да
Forced : Нет

Текст
Идентификатор : 3
Формат : UTF-8
Идентификатор кодека : S_TEXT/UTF8
Идентификатор кодека/Информация : UTF-8 Plain Text
Продолжительность : 1 ч. 24 м.
Битрейт : 102 бит/сек
Count of elements : 1192
Размер потока : 63,5 Кбайт (0%)
Заголовок : Full
Язык : Russian
Default : Нет
Forced : Нет

Меню
00:00:00.000 : :Chapter 01
00:12:06.225 : :Chapter 02
00:24:27.924 : :Chapter 03
00:36:23.139 : :Chapter 04
00:48:42.210 : :Chapter 05
01:04:11.264 : :Chapter 06
01:17:49.665 : :Chapter 07
01:27:14.604 : :Chapter 08

pb.wtf



Скачать 22 мили через торрент http://i98.fastpic.ru/big/2018/1115/c7/31faed614233102c77969e8781c46dc7.jpg Скачать фильм 22 мили через торрент бесплантно в хорошем качестве Описание: Призраки - элитный отряд сверхсекретной разведки: официально они не существуют, но на самом деле - реальны. Они решают задачи, ... 10 10 6
Торрент: Зарегистрирован [2019-03-07 23:48] · скачан: 281 раз
Статус: √ проверено
Размер: 1.57 GB
Как cкачать? Как скачать 22 мили через торрент | qTorrent

% Раздел Тема Автор DL S | L
Фильмы (WEB-DL 720p, 1080p) [ 3.27 GB ] 22 мили / Mile 22 [2018 WEB-DL 1080p] bober100 Скачать
27 | 0
Фильмы [HD 720p, 1080p] (Хороший звук DUB, MVO) [ 9.08 GB ] 22 мили / Mile 22 [2018 BDRip 1080p] DUB [ BD RUS] + AVO [Михаил Яроцкий] sheker187 Скачать
1 | 0
Фильмы 2018 [DVDrip, WEB-DLRip, HDrip] (DUB, MVO) [ 1.46 GB ] 22 мили / Mile 22 [2018 BDRip] - [] Twi7ter Скачать
5 | 0
Фильмы [HD 720p, 1080p] (Хороший звук DUB, MVO) [ 5.48 GB ] 22 мили / Mile 22 [2018 BDRip 720p] DUB [] bober100 Скачать
3 | 0
Фильмы (Blu-ray, BD-Remux, HDDVD) [ 25 GB ] 22 мили / Mile 22 [2018 BD Remux 1080p] [CAN Transfer] DUB [] bober100 Скачать
1 | 0
Фильмы [HD 720p, 1080p] (Хороший звук DUB, MVO) [ 8.78 GB ] 22 мили / Mile 22 [2018 BDRip 1080p] DUB [] bober100 Скачать
1 | 0
Фильмы 2018 [DVDrip, WEB-DLRip, HDrip] (DUB, MVO) [ 1.46 GB ] 22 мили / Mile 22 [2018 BDRip] DUB [ BD RUS] bober100 Скачать
2 | 0

28-11-2019 20:33  

Отключить всю рекламу на сайте

    Дорогой пользователь! Огромная просьба, поблагодарите релизера, оцените раздачу и оставьте свои комментарий, если Вы скачали 22 мили через торрент бесплатно! Внесите свою лепту в развитие PiratBit!
    Комментировать посты могут только пользователи прошедшие не сложную регистрацию
    Показать сообщения:    

    22 мили через торрент
    Скачать бесплатно 22 мили
    22 мили скачать торрент
    22 мили смотреть онлайн
    Cкачать фильм 22 мили бесплатно
    22 мили скачать торрент в хорошем качестве
    22 мили смотреть онлайн бесплатно в хорошем качестве


    Вы не можете начинать темы
    Вы не можете отвечать на сообщения
    Вы не можете редактировать свои сообщения
    Вы не можете удалять свои сообщения
    Вы не можете голосовать в опросах
    Вы не можете прикреплять файлы к сообщениям
    Вы можете скачивать файлы