Ссылка на приватное зеркало всего за 1$. Внимание количество ограничено!!!

iTunes

iTunes

iTunes

1

iTunes

iTunes

iTunes

WEBRip

iTunes

30
pack

$ от Little Big

ВАЖНО

!!Акция!!

Alien_RageХит недели

RePack

Resident Evil 21

ИГРА 18+

pack

RePack

jed

!!Акция!!

Alien_Rage

RePack

fifa19

RePack

Assassins Creed: Odyssey

RePack

NEED FOR SPEED™ PAYBACK

4 сезон

9 сезон

Бесстыжие 9 сезон

Все сериалы

все сериалы на PB.wtf

RePack

FAR CRY 5
  

Я – извращенец / Hentaida (Хадзимэ Андзаи) [2016, комедия, BDRip 720p] MVO [КОЛОБОК] pb.wtf

Я – извращенец через торрент pb.wtf

Размер: 3.68 GB | Добавлен: 1 год 4 мес. назад | Торрент скачан:79 раз
Скачать  

08-03-2019 05:21 Я – извращенец Скачать торрент  

Я – извращенец / HentaidaГод выпуска: 2016
Страна: Япония
Жанр: комедия
Продолжительность: 01:17:38
Перевод: Любительский (многоголосый) | КОЛОБОК
Субтитры: отсутствуют

Режиссер: Хадзимэ Андзаи

rating

В ролях:

Кэнта Маэно, Кэисукэ Хосино, Синпэй Итикава, Саёко Кисинами, Канкуро Кудо, Ю Нобуэ, Эйта Окуно, Хидэтоси Сакурай, Марина Сираиси, Касуми Тагути

Описание:

Стареющий инди-исполнитель выступающий под псевдонимом "Письмо с отказом" живет полной и счастливой жизнью, у него есть жена, новорожденный сын... но кроме этого у него есть и вторая, тайная жизнь, в которой он садо-мазо раб подчинённый своей госпоже.

Качество: BDRip 720p
Формат: MKV

Видео: h.264, 6 335 Кбит/с,1280x720
Аудио#1: Русский (AC3, 2 ch, 448 Кбит/с)
скриншот  скриншот  скриншот  

Общее
Уникальный идентификатор : 213341647348524137696571478511455885807 (0xA0801B50C778356D8F85B4DB8F98D9EF)
Полное имя : D:\Hentaida.2016.Pk.BDRip.72Op.mkv
Формат : Matroska
Версия формата : Version 2
Размер файла : 3,68 Гбайт
Продолжительность : 1 ч. 17 м.
Режим общего битрейта : Переменный
Общий поток : 6785 Кбит/сек
Дата кодирования : UTC 2019-03-07 16:50:11
Программа кодирования : mkvmerge v8.3.0 ('Over the Horizon') 64bit
Библиотека кодирования : libebml v1.3.1 + libmatroska v1.4.2

Видео
Идентификатор : 1
Формат : AVC
Формат/Информация : Advanced Video Codec
Профиль формата : High@L4.1
Параметр CABAC формата : Да
Параметр RefFrames формата : 4 кадра
Идентификатор кодека : V_MPEG4/ISO/AVC
Продолжительность : 1 ч. 17 м.
Вид битрейта : Переменный
Битрейт : 6335 Кбит/сек
Максимальный битрейт : 7400 Кбит/сек
Ширина : 1280 пикселей
Высота : 720 пикселей
Соотношение сторон : 16:9
Режим частоты кадров : Постоянный
Частота кадров : 23,976 (24000/1001) кадра/сек
Стандарт вещания : Component
Цветовое пространство : YUV
Субдискретизация насыщенности : 4:2:0
Битовая глубина : 8 бит
Тип развёртки : Прогрессивная
Бит/(Пиксели*Кадры) : 0.281
Размер потока : 3,36 Гбайт (91%)
Default : Да
Forced : Нет
Цветовой диапазон : Limited
Основные цвета : BT.709
Характеристики трансфера : BT.709
Коэффициенты матрицы : BT.709

Аудио
Идентификатор : 2
Формат : AC-3
Формат/Информация : Audio Coding 3
Расширение режима : CM (complete main)
Параметр Endianness формата : Big
Идентификатор кодека : A_AC3
Продолжительность : 1 ч. 17 м.
Вид битрейта : Постоянный
Битрейт : 448 Кбит/сек
Каналы : 2 канала
Расположение каналов : Front: L R
Частота : 48,0 КГц
Частота кадров : 31,250 кадров/сек (1536 spf)
Метод сжатия : С потерями
Размер потока : 249 Мбайт (7%)
Default : Да
Forced : Нет

pb.wtf



Скачать Я – извращенец через торрент https://c.radikal.ru/c09/1903/b7/9f7bb0458901.jpg Скачать фильм Я – извращенец через торрент бесплантно в хорошем качестве Описание: Стареющий инди-исполнитель выступающий под псевдонимом "Письмо с отказом" живет полной и счастливой жизнью, у него есть жена, ... 8.5 10 6
Торрент: Зарегистрирован [2019-03-08 05:21] · скачан: 79 раз
Статус: # сомнительно
Размер: 3.68 GB
Как cкачать? Как скачать Я – извращенец через торрент | qTorrent

% Раздел Тема Автор DL S | L
T Фильмы (мультфильмы) cо спонсором показа (Новинки AVI/MKV) [ 1.37 GB ] Я – извращенец / Hentaida [2016 HDRip] MVO [КОЛОБОК] bober100 Скачать
1 | 0

28-11-2019 20:33  

Отключить всю рекламу на сайте

    Дорогой пользователь! Огромная просьба, поблагодарите релизера, оцените раздачу и оставьте свои комментарий, если Вы скачали Я – извращенец через торрент бесплатно! Внесите свою лепту в развитие PiratBit!
    Комментировать посты могут только пользователи прошедшие не сложную регистрацию
    Показать сообщения:    

    Я – извращенец через торрент
    Скачать бесплатно Я – извращенец
    Я – извращенец скачать торрент
    Я – извращенец смотреть онлайн
    Cкачать фильм Я – извращенец бесплатно
    Я – извращенец скачать торрент в хорошем качестве
    Я – извращенец смотреть онлайн бесплатно в хорошем качестве


    Вы не можете начинать темы
    Вы не можете отвечать на сообщения
    Вы не можете редактировать свои сообщения
    Вы не можете удалять свои сообщения
    Вы не можете голосовать в опросах
    Вы не можете прикреплять файлы к сообщениям
    Вы можете скачивать файлы