Ссылка на приватное зеркало всего за 1$. Внимание количество ограничено!!!

iTunes

iTunes

iTunes

1

iTunes

iTunes

iTunes

WEBRip

iTunes

30
pack

$ от Little Big

ВАЖНО

!!Акция!!

Alien_RageХит недели

RePack

Resident Evil 21

ИГРА 18+

pack

RePack

jed

!!Акция!!

Alien_Rage

RePack

fifa19

RePack

Assassins Creed: Odyssey

RePack

NEED FOR SPEED™ PAYBACK

4 сезон

9 сезон

Бесстыжие 9 сезон

Все сериалы

все сериалы на PB.wtf

RePack

FAR CRY 5
  

Каникулы / Holiday (Изабелла Эклёф) [2018, драма, криминал, WEB-DL 720p] MVO ["Синема УС"] pb.wtf

Каникулы через торрент pb.wtf

Размер: 3.4 GB | Добавлен: 1 год 4 мес. назад | Торрент скачан:106 раз
Скачать  

08-03-2019 05:35 Каникулы Скачать торрент  

Каникулы / Holiday Год выпуска: 2018
Страна: Дания, Нидерланды, Швеция
Жанр: драма, криминал
Продолжительность: 01:26:00
Перевод: Любительский (многоголосый) | "Синема УС"
Субтитры: отсутствуют

Режиссер: Изабелла Эклёф

rating

В ролях:

Виктория Кармен Сонн, Лаи Иде, Тийс Рёмер, Корай Алай, Керем Арслан, Матиас Бенгтссон, Савас Беязгул, Мелек Селин Биртюрк, Бо Бреннум, Мишель Де Йонг

Описание:

Наркодилер средней руки вместе с подругой Сашей и членами банды приезжает на отдых в Турцию. Шоппинг, водные аттракционы, барбекю, вечеринки дни и ночи напролет. Не особо считаясь с окружающими, члены ОПГ придерживаются строгих правил общения внутри коллектива. Однажды Саша знакомится с милыми голландскими туристами.

Качество: WEB-DL 720p
Формат: MKV

Видео: h.264,5 269 Кбит/с, 1280x532
Аудио#1: Русский, (AC3, 2 ch, 384 Кбит/с)
скриншот  скриншот  скриншот  

Общее
Уникальный идентификатор : 225392372051872785355304235728510846986 (0xA990FDEA59180BB8A0AB95FCE62B080A)
Полное имя : D:\Holiday.2018.P.WEB-DL.72Op.mkv
Формат : Matroska
Версия формата : Version 2
Размер файла : 3,40 Гбайт
Продолжительность : 1 ч. 26 м.
Режим общего битрейта : Переменный
Общий поток : 5655 Кбит/сек
Дата кодирования : UTC 2019-03-07 16:53:04
Программа кодирования : mkvmerge v8.3.0 ('Over the Horizon') 64bit
Библиотека кодирования : libebml v1.3.1 + libmatroska v1.4.2

Видео
Идентификатор : 1
Формат : AVC
Формат/Информация : Advanced Video Codec
Профиль формата : High@L4.1
Параметр CABAC формата : Да
Параметр RefFrames формата : 4 кадра
Идентификатор кодека : V_MPEG4/ISO/AVC
Продолжительность : 1 ч. 26 м.
Вид битрейта : Переменный
Битрейт : 5269 Кбит/сек
Максимальный битрейт : 6000 Кбит/сек
Ширина : 1280 пикселей
Высота : 532 пикселя
Соотношение сторон : 2,40:1
Режим частоты кадров : Постоянный
Частота кадров : 23,976 (24000/1001) кадра/сек
Стандарт вещания : Component
Цветовое пространство : YUV
Субдискретизация насыщенности : 4:2:0
Битовая глубина : 8 бит
Тип развёртки : Прогрессивная
Бит/(Пиксели*Кадры) : 0.316
Размер потока : 3,10 Гбайт (91%)
Default : Да
Forced : Нет
Цветовой диапазон : Limited
Основные цвета : BT.709
Характеристики трансфера : BT.709
Коэффициенты матрицы : BT.709

Аудио
Идентификатор : 2
Формат : AC-3
Формат/Информация : Audio Coding 3
Расширение режима : CM (complete main)
Параметр Endianness формата : Big
Идентификатор кодека : A_AC3
Продолжительность : 1 ч. 26 м.
Вид битрейта : Постоянный
Битрейт : 384 Кбит/сек
Каналы : 2 канала
Расположение каналов : Front: L R
Частота : 48,0 КГц
Частота кадров : 31,250 кадров/сек (1536 spf)
Метод сжатия : С потерями
Размер потока : 236 Мбайт (7%)
Default : Да
Forced : Нет

pb.wtf



Скачать Каникулы через торрент https://a.radikal.ru/a27/1903/e4/1fffc2eefd08.jpg Скачать фильм Каникулы через торрент бесплантно в хорошем качестве Описание: Наркодилер средней руки вместе с подругой Сашей и членами банды приезжает на отдых в Турцию. Шоппинг, водные аттракционы, ... 10 10 3
Торрент: Зарегистрирован [2019-03-08 05:35] · скачан: 106 раз
Статус: T временная
Размер: 3.4 GB
Как cкачать? Как скачать Каникулы через торрент | qTorrent

% Раздел Тема Автор DL S | L
T Фильмы (мультфильмы) cо спонсором показа (Новинки AVI/MKV) [ 1.37 GB ] Каникулы / Holiday [2018 WEB-DLRip] MVO ["Синема УС"] bober100 Скачать
1 | 0
Фильмы 2014 [DVDrip, WEB-DLRip, HDrip] [ 2.18 GB ] Каникулы мечты / What We Did on Our Holiday [2014 BDRip-AVC] MVO [] potroks Скачать
1 | 0
Фильмы (Blu-ray, BD-Remux, HDDVD) [ 21.41 GB ] Каникулы мечты / What We Did on Our Holiday [2014 Blu-Ray 1080p / ] Ворон Скачать
1 | 0
Фильмы [HD 720p, 1080p] (Хороший звук DUB, MVO) [ 9.33 GB ] Каникулы мечты / What We Did on Our Holiday [2014 BDRip 1080p Ворон Скачать
1 | 0
Порно фильмы с сюжетом [ 1.42 GB ] Русский институт - Урок 19-ый - Каникулы у родителей / Russian Institute Lesson 19 Vacances chez mes parents / Holidays at my parents / Schulferi [2013 Feature Anal DP DVDRip Оригинал] Pir@tya2010 Скачать
1 | 0
Порно фильмы с сюжетом [ 1.53 GB ] Русский институт урок 19: Каникулы у родителей / Russian Institute Lesson 19: Holidays at my parents [2013 Feature Couples Vignettes PornStars Fantasies Uniform WEB-DLRip Оригинал] sheker187 Скачать
2 | 0
Порно фильмы без сюжета [ 3.96 GB ] Девушки-самоубийцы: Каникулы в Англии / SuicideGirls: UK Holiday [2012 Solo Interview Posing SiteRip HD 720p] Liloo_Foofyga Скачать
1 | 0

28-11-2019 20:33  

Отключить всю рекламу на сайте

    Дорогой пользователь! Огромная просьба, поблагодарите релизера, оцените раздачу и оставьте свои комментарий, если Вы скачали Каникулы через торрент бесплатно! Внесите свою лепту в развитие PiratBit!
    Комментировать посты могут только пользователи прошедшие не сложную регистрацию
    Показать сообщения:    

    Каникулы через торрент
    Скачать бесплатно Каникулы
    Каникулы скачать торрент
    Каникулы смотреть онлайн
    Cкачать фильм Каникулы бесплатно
    Каникулы скачать торрент в хорошем качестве
    Каникулы смотреть онлайн бесплатно в хорошем качестве


    Вы не можете начинать темы
    Вы не можете отвечать на сообщения
    Вы не можете редактировать свои сообщения
    Вы не можете удалять свои сообщения
    Вы не можете голосовать в опросах
    Вы не можете прикреплять файлы к сообщениям
    Вы можете скачивать файлы