Ссылка на приватное зеркало нашего сайта всего за 1$. Внимание количество ограничено!!!

2 сезон

iTunes

1 сезон

1

iTunes

iTunes

iTunes

1 сезон

RePack

30

ИГРА 18+

pack

ВАЖНО

!!Акция!!

Alien_RageХит недели

RePack

MK11
pack

Забери бонус

RePack

jed

!!Акция!!

Alien_Rage

RePack

fifa19

RePack

Assassins Creed: Odyssey

RePack

NEED FOR SPEED™ PAYBACK

4 сезон

9 сезон

Бесстыжие 9 сезон

Все сериалы

все сериалы на PB.wtf

RePack

FAR CRY 5
  

Стражи Отчизны / Сезон: 1 / Серии: 1-8 из 8 (Михаил Колпахчиев) [2019, боевик, WEB-DL 720p] pb.wtf

Стражи Отчизны через торрент pb.wtf

Раздают: 1 [ 0 KB/s ]
Размер: 9.31 GB | Добавлен: 1 год 7 мес. назад | Торрент скачан:144 раза
Скачать  

08-03-2019 06:52 Стражи Отчизны Скачать торрент  

Стражи Отчизны Год выпуска: 2019
Страна: Россия
Жанр: боевик
Продолжительность: ~ 00:47:00
Перевод: Не требуется
Субтитры: отсутствуют

Режиссер: Михаил Колпахчиев



В ролях:

Александр Сластин, Сергей Воробьёв (IV), Дмитрий Лавров (III), Яков Шамшин, Дарья Ленда, Артём Руденко, Пётр Журавлёв, Олег Хамитов, Светлана Питерская

Описание:

«Стражи Отчизны» – секретное подразделение «спящих» агентов. Созданное в 90-х, оно не раз спасало Россию. В 2000-х от группы осталось всего два агента. Их погрузили в состояние глубокого гипноза и придумали «мирные» биографии. Кто они на самом деле, знает только генерал Вавилов – лидер «Стражей». Только он может их «разбудить». Час настал! Уже на первом задании к «Стражам» примыкают два новых агента. Теперь их четверо. И борьба только начинается. Отступать некуда – позади Великая Родина.

Качество: WEB-DL 720p
Формат: MKV

Видео: MPEG-4 AVC, ~ 3500 Кбит/с, 1280х720
Аудио: AC3, 2 ch, 192 Кбит/с
скриншот  скриншот  скриншот  

Общее
Уникальный идентификатор : 246004164942316942829666530499641033715 (0xB912ADC3E99DC8E99B2294DCEAA543F3)
Полное имя : D:\Strazhi.Otchizny.2019.WEB-DL.720.25Kuzmich\Strazhi.Otchizny.(01.seriya.iz.08).WEB-DL.720.25Kuzmich.mkv
Формат : Matroska
Версия формата : Version 2
Размер файла : 1,21 Гбайт
Продолжительность : 47 м. 4 с.
Режим общего битрейта : Переменный
Общий поток : 3675 Кбит/сек
Дата кодирования : UTC 2019-03-07 21:31:41
Программа кодирования : mkvmerge v4.0.0 ('The Stars were mine') сборка от Jun 6 2010 16:18:42
Библиотека кодирования : libebml v1.0.0 + libmatroska v1.0.0

Видео
Идентификатор : 1
Формат : AVC
Формат/Информация : Advanced Video Codec
Профиль формата : High@L4.1
Параметр CABAC формата : Да
Параметр RefFrames формата : 5 кадров
Идентификатор кодека : V_MPEG4/ISO/AVC
Продолжительность : 47 м. 4 с.
Вид битрейта : Переменный
Битрейт : 3410 Кбит/сек
Максимальный битрейт : 40,0 Мбит/сек
Ширина : 1280 пикселей
Высота : 720 пикселей
Соотношение сторон : 16:9
Режим частоты кадров : Постоянный
Частота кадров : 25,000 кадров/сек
Цветовое пространство : YUV
Субдискретизация насыщенности : 4:2:0
Битовая глубина : 8 бит
Тип развёртки : Прогрессивная
Бит/(Пиксели*Кадры) : 0.148
Размер потока : 1,12 Гбайт (93%)
Язык : Russian
Default : Да
Forced : Нет

Аудио
Идентификатор : 2
Формат : AC-3
Формат/Информация : Audio Coding 3
Расширение режима : CM (complete main)
Параметр Endianness формата : Big
Идентификатор кодека : A_AC3
Продолжительность : 47 м. 4 с.
Вид битрейта : Постоянный
Битрейт : 192 Кбит/сек
Каналы : 2 канала
Расположение каналов : Front: L R
Частота : 48,0 КГц
Частота кадров : 31,250 кадров/сек (1536 spf)
Метод сжатия : С потерями
Размер потока : 64,7 Мбайт (5%)
Язык : Russian
Default : Да
Forced : Нет

pb.wtf



Скачать Стражи Отчизны через торрент https://i109.fastpic.ru/big/2019/0303/3d/428bc54cc6b94d5f6b00bf20b09d443d.jpg Скачать фильм Стражи Отчизны через торрент бесплантно в хорошем качестве Описание: «Стражи Отчизны» – секретное подразделение «спящих» агентов. Созданное в 90-х, оно не раз спасало Россию. В 2000-х от группы ... 9.1 10 10
Торрент: Зарегистрирован [2019-03-08 06:52] · скачан: 144 раз
Статус: √ проверено
Размер: 9.31 GB
Как cкачать? Как скачать Стражи Отчизны через торрент | qTorrent

% Раздел Тема Автор DL S | L
Наши сериалы [ 4.48 GB ] Стражи Отчизны / Сезон: 1 / Серии: 1-8 из 8 [2019 WEB-DLRip-AVC] bober100 Скачать
1 | 0
Наши сериалы [ 4.5 GB ] Стражи Отчизны / Сезон: 1 / Серии: 1-8 из 8 [2019 WEB-DLRip] bober100 Скачать
1 | 0
Наши сериалы [ 4.69 GB ] Стражи Отчизны / Сезон: 1 / Серии: 1-8 из 8 [2019 SATRip] bober100 Скачать
1 | 0

28-11-2019 20:33  

Отключить всю рекламу на сайте

    Дорогой пользователь! Огромная просьба, поблагодарите релизера, оцените раздачу и оставьте свои комментарий, если Вы скачали Стражи Отчизны через торрент бесплатно! Внесите свою лепту в развитие PiratBit!
    Комментировать посты могут только пользователи прошедшие не сложную регистрацию
    Показать сообщения:    

    Стражи Отчизны через торрент
    Скачать бесплатно Стражи Отчизны
    Стражи Отчизны скачать торрент
    Стражи Отчизны смотреть онлайн
    Cкачать фильм Стражи Отчизны бесплатно
    Стражи Отчизны скачать торрент в хорошем качестве
    Стражи Отчизны смотреть онлайн бесплатно в хорошем качестве


    Вы не можете начинать темы
    Вы не можете отвечать на сообщения
    Вы не можете редактировать свои сообщения
    Вы не можете удалять свои сообщения
    Вы не можете голосовать в опросах
    Вы не можете прикреплять файлы к сообщениям
    Вы можете скачивать файлы