Marvel's Avengers Deluxe Edition (супер цена) 159р. Внимание количество ограничено!!!

2 сезон

iTunes

iTunes

1

iTunes

iTunes

iTunes

WEBRip

iTunes

30
pack

Новость дня

ВАЖНО

!!Акция!!

Alien_RageХит недели

RePack

Horizon Zero Dawn

ИГРА 18+

pack

RePack

jed

!!Акция!!

Alien_Rage

RePack

fifa19

RePack

Assassins Creed: Odyssey

RePack

NEED FOR SPEED™ PAYBACK

4 сезон

9 сезон

Бесстыжие 9 сезон

Все сериалы

все сериалы на PB.wtf

RePack

FAR CRY 5
  

Речные пираты / The River Pirates (Ли Ядун) [2018, Боевик, драма, исторический, WEB-DL 720p] MVO [КОЛОБОК] pb.wtf

Речные пираты через торрент pb.wtf

Размер: 3.75 GB | Добавлен: 1 год 6 мес. назад | Торрент скачан:189 раз
Скачать  

08-03-2019 08:02 Речные пираты Скачать торрент  

Речные пираты / The River Pirates Год выпуска: 2018
Страна: Китай
Жанр: Боевик, драма, исторический
Продолжительность: 01:32:09
Перевод: Любительский (многоголосый) | КОЛОБОК
Субтитры: отсутствуют

Режиссер: Ли Ядун



В ролях:

Эдвин Лу, Ма Цяньи, Лю Вэйчжоу, Цинь Чумин, Пол Хэ, Ван Юнчао

Описание:

Пираты похищают образец новых монет с имперского судна. Этот налёт запустит череду событий, в которую будут вовлечены бывшие члены элитных императорских войск, бандиты и воры всех мастей, а также обычный сребродел и девочка, которая почти заменила ему дочь

Качество: WEB-DL 720p
Формат: MKV

Видео: h.264, 5 445 Кбит/с, 1280x544
Аудио#1: Русский, (AC3, 2 ch, 384 Кбит/с)
скриншот  скриншот  скриншот  

Общее
Уникальный идентификатор : 238278750100946150113119885637693202947 (0xB342D167FE3670FD928182829743E203)
Полное имя : D:\River pirates.2018.Pk.WEB-DL.72Op.mkv
Формат : Matroska
Версия формата : Version 2
Размер файла : 3,75 Гбайт
Продолжительность : 1 ч. 32 м.
Режим общего битрейта : Переменный
Общий поток : 5831 Кбит/сек
Дата кодирования : UTC 2019-03-07 15:32:59
Программа кодирования : mkvmerge v8.3.0 ('Over the Horizon') 64bit
Библиотека кодирования : libebml v1.3.1 + libmatroska v1.4.2

Видео
Идентификатор : 1
Формат : AVC
Формат/Информация : Advanced Video Codec
Профиль формата : High@L4.1
Параметр CABAC формата : Да
Параметр RefFrames формата : 4 кадра
Идентификатор кодека : V_MPEG4/ISO/AVC
Продолжительность : 1 ч. 32 м.
Вид битрейта : Переменный
Битрейт : 5445 Кбит/сек
Максимальный битрейт : 6000 Кбит/сек
Ширина : 1280 пикселей
Высота : 544 пикселя
Соотношение сторон : 2,35:1
Режим частоты кадров : Постоянный
Частота кадров : 23,976 (24000/1001) кадра/сек
Стандарт вещания : Component
Цветовое пространство : YUV
Субдискретизация насыщенности : 4:2:0
Битовая глубина : 8 бит
Тип развёртки : Прогрессивная
Бит/(Пиксели*Кадры) : 0.319
Размер потока : 3,43 Гбайт (91%)
Default : Да
Forced : Нет
Цветовой диапазон : Limited
Основные цвета : BT.709
Характеристики трансфера : BT.709
Коэффициенты матрицы : BT.709

Аудио
Идентификатор : 2
Формат : AC-3
Формат/Информация : Audio Coding 3
Расширение режима : CM (complete main)
Параметр Endianness формата : Big
Идентификатор кодека : A_AC3
Продолжительность : 1 ч. 32 м.
Вид битрейта : Постоянный
Битрейт : 384 Кбит/сек
Каналы : 2 канала
Расположение каналов : Front: L R
Частота : 48,0 КГц
Частота кадров : 31,250 кадров/сек (1536 spf)
Метод сжатия : С потерями
Размер потока : 253 Мбайт (7%)
Default : Да
Forced : Нет

pb.wtf



Скачать Речные пираты через торрент https://b.radikal.ru/b18/1903/53/d1d6a5f40232.jpg Скачать фильм Речные пираты через торрент бесплантно в хорошем качестве Описание: Пираты похищают образец новых монет с имперского судна. Этот налёт запустит череду событий, в которую будут вовлечены бывшие ... 9.9 10 8
Торрент: Зарегистрирован [2019-03-08 08:02] · скачан: 189 раз
Статус: T временная
Размер: 3.75 GB
Как cкачать? Как скачать Речные пираты через торрент | qTorrent

% Раздел Тема Автор DL S | L
T Фильмы (мультфильмы) cо спонсором показа (Новинки AVI/MKV) [ 1.37 GB ] Речные пираты / The River Pirates [2018 исторический WEB-DLRip] MVO [КОЛОБОК] bober100 Скачать
1 | 0

28-11-2019 20:33  

Отключить всю рекламу на сайте

09-03-2019 18:11 Речные пираты Скачать торрент  

Как оно?pb.wtf



    Дорогой пользователь! Огромная просьба, поблагодарите релизера, оцените раздачу и оставьте свои комментарий, если Вы скачали Речные пираты через торрент бесплатно! Внесите свою лепту в развитие PiratBit!
    Комментировать посты могут только пользователи прошедшие не сложную регистрацию
    Показать сообщения:    

    Речные пираты через торрент
    Скачать бесплатно Речные пираты
    Речные пираты скачать торрент
    Речные пираты смотреть онлайн
    Cкачать фильм Речные пираты бесплатно
    Речные пираты скачать торрент в хорошем качестве
    Речные пираты смотреть онлайн бесплатно в хорошем качестве


    Вы не можете начинать темы
    Вы не можете отвечать на сообщения
    Вы не можете редактировать свои сообщения
    Вы не можете удалять свои сообщения
    Вы не можете голосовать в опросах
    Вы не можете прикреплять файлы к сообщениям
    Вы можете скачивать файлы