новый адрес пиратбит piratbit
Мега распродажа FORZA HORIZON 4 ULTIMATE+ВСЕ DLC+ОНЛАЙН всего за 499р. 349 руб. (супер цена). Внимание количество ограничено!!!

iTunes

1+1

iTunes

мы

iTunes

1

iTunes

Чернобыль

iTunes

Ральф против интернета

Лицензия

ПШазам

Лицензия

Игра престолов

Лицензия

30
pack

ВАЖНО

!!Акция!!

Alien_RageХит недели

RePack

Resident Evil 21

ИГРА 18+

pack

RePack

Metro:Exodus

!!Акция!!

Alien_Rage

RePack

fifa19

RePack

Assassins Creed: Odyssey

RePack

NEED FOR SPEED™ PAYBACK

3 сезон

9 сезон

Бесстыжие 9 сезон

Все сериалы

все сериалы на PB.wtf

RePack

FAR CRY 5
Ребята, катастрофически не хватает 1900р. для оплаты серверов за Октябрь (всвязи с блокировками трафик упал в 3 раза), 1-2р., выручайте.
  

Третий тайм (Евгений Карелов) [1962, СССР, драма, военный, спорт, DVDRip от AVP Studio] pb.wtf

Третий тайм через торрент pb.wtf

Размер: 744 MB | Добавлен: 8 мес. назад | Торрент скачан:4 раза
Скачать  

08-03-2019 10:10 Третий тайм Скачать торрент  

Третий тайм
Страна: СССР
Производство: Мосфильм

Жанр: драма, военный, спорт
Год выпуска: 1962
Продолжительность: 01:23:05

Перевод: Не требуется
Cубтитры: нет
Оригинальная аудиодорожка: русский

Режиссер: Евгений Карелов

В ролях:
Юрий Волков, Владимир Кашпур, Леонид Куравлёв, Юрий Назаров, Вячеслав Невинный, Глеб Стриженов, Геннадий Юхтин, Алексей Эйбоженко, Валентина Шарыкина, Игорь Пушкарёв, Александра Данилова, Лидия Драновская, Эрвин Кнаусмюллер, Александр Метёлкин, Николай Новлянский, Владимир Пицек, Георгий Светлани, Валентинс Скулме, Валентина Маркова, Виллу Томингас, Альфред Зиновьев, Евгений Папцов, В. Ланге, Михаил Огоньков, В. Чёрный...
Об актёрах подробней

Описание:
В основе фильма действительный факт - футбольный матч между немецкой командой и командой, состоящей из советских военнопленных. Это произошло в Киеве 22 июня 1942 года. Предвидя возможность проигрыша, немцы поставили условие - поражение или смерть: в случае победы немцев члены советской команды получат свободу...

Источник: DVD5 R5
Качество видео: DVDRip
Формат видео: AVI

Видео: 688х320 (2,2:1), 25,000 fps, XviD ~ 1050 kbps avg, 0.191 bit/pixel
Аудио: 48 kHz, Dolby Digital AC3 2.0, 192 kbps

Раздача от:
Общее
Полное имя : Tretiy.taym.1962.DVDRip_[New-team]_by_AVP_Studio.avi
Формат : AVI
Формат/Информация : Audio Video Interleave
Размер файла : 744 Мбайт
Продолжительность : 1 ч. 23 м.
Общий поток : 1252 Кбит/сек
Программа кодирования : VirtualDubMod 1.5.10.3 | www.virtualdub-fr.org || (build 2550/release)
Библиотека кодирования : VirtualDubMod build 2550/release

Видео
Идентификатор : 0
Формат : MPEG-4 Visual
Профиль формата : Advanced Simple@L5
Настройки формата : BVOP1 / Custom Matrix
Параметр BVOP формата : 1
Параметр QPel формата : Нет
Параметр GMC формата : Без точки перехода
Параметр матрицы формата : Выборочная
Идентификатор кодека : XVID
Идентификатор кодека/Подсказка : XviD
Продолжительность : 1 ч. 23 м.
Битрейт : 1050 Кбит/сек
Ширина : 688 пикселей
Высота : 320 пикселей
Соотношение сторон : 2,2:1
Частота кадров : 25,000 кадров/сек
Цветовое пространство : YUV
Субдискретизация насыщенности : 4:2:0
Битовая глубина : 8 бит
Тип развёртки : Прогрессивная
Метод сжатия : С потерями
Бит/(Пиксели*Кадры) : 0.191
Размер потока : 624 Мбайт (84%)
Библиотека кодирования : XviD 73

Аудио
Идентификатор : 1
Формат : AC-3
Формат/Информация : Audio Coding 3
Коммерческое название : Dolby Digital
Идентификатор кодека : 2000
Продолжительность : 1 ч. 23 м.
Вид битрейта : Постоянный
Битрейт : 192 Кбит/сек
Каналы : 2 канала
Channel layout : L R
Частота : 48,0 КГц
Частота кадров : 31,250 кадров/сек (1536 SPF)
Битовая глубина : 16 бит
Метод сжатия : С потерями
Размер потока : 114 Мбайт (15%)
Выравнивание : Разделение по промежуткам
Продолжительность промежутка : 40 мс. (1,00 видеокадр)
Время предзагрузки промежутка : 500 мс
pb.wtf



Скачать Третий тайм через торрент http://picplus.ru/img/1903/06/494641c1.png Скачать фильм Третий тайм через торрент бесплантно в хорошем качестве Описание:В основе фильма действительный факт - футбольный матч между немецкой командой и командой, состоящей из советских военнопленных. ... 5 10 1
Info! Золотая раздача, скачанное не засчитывается.
Торрент: Зарегистрирован [2019-03-08 10:10] · скачан: 4 раз
Статус: √ проверено
Размер: 744 MB
Как cкачать? Как скачать Третий тайм через торрент | qTorrent

% Раздел Тема Автор DL S | L
Кино СССР [ 745 MB ] Третий тайм [1962 СССР военный DVDRip-AVC от AVP Studio] AVP Studio Скачать
1 | 0


>> Регистрируемся здесь <<






Отзывы и комментарии о схеме читаем и пишем здесь: ---> Отзывы и комментарии о схеме

Новые благодарочки в телеграм довольных пользователей:
скриншот   скриншот   скриншот   скриншот   скриншот
    Дорогой пользователь! Огромная просьба, поблагодарите релизера, оцените раздачу и оставьте свои комментарий, если Вы скачали Третий тайм через торрент бесплатно! Внесите свою лепту в развитие PiratBit!
    Комментировать посты могут только пользователи прошедшие не сложную регистрацию
    Показать сообщения:    

    Третий тайм через торрент
    Скачать бесплатно Третий тайм
    Третий тайм скачать торрент
    Третий тайм смотреть онлайн
    Cкачать фильм Третий тайм бесплатно
    Третий тайм скачать торрент в хорошем качестве
    Третий тайм смотреть онлайн бесплатно в хорошем качестве


    Вы не можете начинать темы
    Вы не можете отвечать на сообщения
    Вы не можете редактировать свои сообщения
    Вы не можете удалять свои сообщения
    Вы не можете голосовать в опросах
    Вы не можете прикреплять файлы к сообщениям
    Вы можете скачивать файлы