Достать ножи: Стеклянная луковица

MVO

Добыча

Дубляж

Уэнсдэй

1 сезон

Тор

Дубляж

13 клиническая

1 сезон

Жестокая ночь

MVO

Одни из нас

1 сезон

Deluxe

pack

Рекомендуем

30

Пиратка

ВАЖНО

ВАЖНО

Ghostwire

Пиратка

jed

RePack

nioh2

RePack

RDR2

RePack

NEED FOR SPEED™ PAYBACK

RePack

скачать торрент

Кинопоиск HD

Острые козырьки 6 сезон

6 сезон

FAR CRY 6

RePack

скачать торрент

Лицензия

скачать торрент

MVO

1

1 сезон

скачать торрент

1 сезон

скачать торрент

Лицензия

  

Фантастические твари: Преступления Грин-де-Вальда / Fantastic Beasts: The Crimes of Grindelwald (Дэвид Йейтс) [2018, фэнтези, приключения, семейный, BDRip 1080p] MVO [HDRezka] +Дубляж (rus, ukr) [Лицензия]

Фантастические твари: Преступления Грин-де-Вальда через торрент pb.wtf

Раздают: 1 [ 0.1 KB/s ]
Размер: 10.34 GB | Добавлен: 3 года 10 мес. назад | Торрент скачан:692 раза
Смотреть онлайн | Скачать | Поддержите нас   

08-03-2019 15:56 Фантастические твари: Преступления Грин-де-Вальда Скачать торрент  

Фантастические твари: Преступления Грин-де-Вальда / Fantastic Beasts: The Crimes of Grindelwald
Год выпуска: 2018
Страна: Великобритания, США
Жанр: фэнтези, приключения, семейный
Продолжительность: 02:13:49

#1: Дублированный | Лицензия
#2: Профессиональный (многоголосый) | HDRezka

Субтитры: Русские (Forced, full), украинские (Forced), английские

Режиссер: Дэвид Йейтс

rating

В ролях:

Эдди Редмэйн (Newt Scamander), Джонни Депп (Grindelwald), Кэтрин Уотерстон (Tina Goldstein), Элисон Судол (Queenie Goldstein), Дэн Фоглер (Jacob Kowalski), Джуд Лоу (Albus Dumbledore), Эзра Миллер (Credence Barebone), Зои Кравиц (Leta Lestrange), Каллум Тернер (Theseus Scamander), Клаудия Ким (Nagini), Кевин Гатри (Abernathy), Кармен Эджого (Seraphina Picquery)
Описание:

Могущественный тёмный волшебник Геллерт Грин-де-Вальд пойман в Штатах, но не собирается молча сидеть в темнице и устраивает грандиозный побег. Теперь ничто не помешает ему добиться своей цели - установить превосходство волшебников над всеми немагическими существами на планете. Чтобы сорвать планы Грин-де-Вальда, Альбус Дамблдор обращается к своему бывшему студенту Ньюту Саламандеру, который соглашается помочь, не подозревая, какая опасность ему грозит. В раскалывающемся на части волшебном мире любовь и верность проверяются на прочность, а конфликт разделяет даже настоящих друзей и членов семей.

Качество: BDRip 1080p
Формат: MKV

Видео: MPEG-4 AVC, 1920x800, 9652 Kbit/s, 23.976 fps
Аудио#1: 48 kHz, AC3, 5.1, 448 Kbps | Дублированный | RUS |
Аудио#2: 48 kHz, AC3, 2.0, 192 Kbps | HDRezka | RUS |
Аудио#3: 48 kHz, AAC, 2.0, 128 Kbps | Дублированный | UKR |
Аудио#4: 48 kHz, AC3, 5.1, 640 Kbps | Оригинал | ENG |
скриншот  скриншот  скриншот  скриншот  скриншот  

General
Unique ID : 223325212395479845458978401098440549802 (0xA802DF1357F4070DA021E560066EA5AA)
Complete name : D:Video111Fantastic.Beasts.The.Crimes.of.Grindelwald.2018.Lic.BDRip.1080p.seleZen.mkv
Format : Matroska
Format version : Version 4
File size : 10.3 GiB
Duration : 2 h 13 min
Overall bit rate : 11.1 Mb/s
Movie name : Fantastic Beasts The Crimes of Grindelwald 2018 from селезень
Encoded date : UTC 2019-03-08 15:48:43
Writing application : mkvmerge v31.0.0 ('Dolores In A Shoestand') 64-bit
Writing library : libebml v1.3.6 + libmatroska v1.4.9

Video
ID : 1
Format : AVC
Format/Info : Advanced Video Codec
Format profile : [email protected]
Format settings : CABAC / 5 Ref Frames
Format settings, CABAC : Yes
Format settings, ReFrames : 5 frames
Codec ID : V_MPEG4/ISO/AVC
Duration : 2 h 13 min
Bit rate : 9 652 kb/s
Width : 1 920 pixels
Height : 800 pixels
Display aspect ratio : 2.40:1
Frame rate mode : Constant
Frame rate : 23.976 (24000/1001) FPS
Color space : YUV
Chroma subsampling : 4:2:0
Bit depth : 8 bits
Scan type : Progressive
Bits/(Pixel*Frame) : 0.262
Stream size : 9.02 GiB (87%)
Title : iFT
Writing library : x264 core 155 r2867+74 66b5600 t_mod_Custom_2 [[email protected] X86_64]
Encoding settings : cabac=1 / ref=5 / deblock=1:-3:-3 / analyse=0x3:0x113 / me=umh / subme=11 / psy=1 / fade_compensate=0.00 / psy_rd=1.00:0.00 / mixed_ref=1 / me_range=32 / chroma_me=1 / trellis=2 / 8x8dct=1 / cqm=0 / deadzone=21,11 / fast_pskip=0 / chroma_qp_offset=-2 / threads=18 / lookahead_threads=3 / sliced_threads=0 / nr=0 / decimate=0 / interlaced=0 / bluray_compat=0 / constrained_intra=0 / fgo=0 / bframes=8 / b_pyramid=2 / b_adapt=2 / b_bias=0 / direct=3 / weightb=1 / open_gop=0 / weightp=2 / keyint=250 / keyint_min=23 / scenecut=40 / intra_refresh=0 / rc_lookahead=60 / rc=crf / mbtree=0 / crf=18.0000 / qcomp=0.60 / qpmin=0:0:0 / qpmax=69:69:69 / qpstep=4 / vbv_maxrate=62500 / vbv_bufsize=78125 / crf_max=0.0 / nal_hrd=none / filler=0 / ip_ratio=1.30 / pb_ratio=1.20 / aq=3:0.70 / aq-sensitivity=10.00 / aq-factor=1.00:1.00:1.00 / aq2=0 / aq3=0 / zones=1170,2107,crf=16/4096,11470,crf=17/125113,126869,crf=17/139977,143605,crf=17
Language : English
Default : Yes
Forced : No
Color range : Limited
Color primaries : BT.709
Transfer characteristics : BT.709
Matrix coefficients : BT.709

Audio #1
ID : 2
Format : AC-3
Format/Info : Audio Coding 3
Commercial name : Dolby Digital
Codec ID : A_AC3
Duration : 2 h 13 min
Bit rate mode : Constant
Bit rate : 448 kb/s
Channel(s) : 6 channels
Channel layout : L R C LFE Ls Rs
Sampling rate : 48.0 kHz
Frame rate : 31.250 FPS (1536 SPF)
Bit depth : 16 bits
Compression mode : Lossy
Stream size : 429 MiB (4%)
Title : Дубляж [License]
Language : Russian
Service kind : Complete Main
Default : Yes
Forced : Yes

Audio #2
ID : 3
Format : AC-3
Format/Info : Audio Coding 3
Commercial name : Dolby Digital
Codec ID : A_AC3
Duration : 2 h 13 min
Bit rate mode : Constant
Bit rate : 192 kb/s
Channel(s) : 2 channels
Channel layout : L R
Sampling rate : 48.0 kHz
Frame rate : 31.250 FPS (1536 SPF)
Bit depth : 16 bits
Compression mode : Lossy
Stream size : 184 MiB (2%)
Title : MVO [HDRezka]
Language : Russian
Service kind : Complete Main
Default : No
Forced : No

Audio #3
ID : 4
Format : AAC LC
Format/Info : Advanced Audio Codec Low Complexity
Codec ID : A_AAC-2
Duration : 2 h 13 min
Bit rate : 126 kb/s
Channel(s) : 2 channels
Channel layout : L R
Sampling rate : 44.1 kHz
Frame rate : 43.066 FPS (1024 SPF)
Compression mode : Lossy
Stream size : 120 MiB (1%)
Title : iTunes
Language : Ukrainian
Default : No
Forced : No

Audio #4
ID : 5
Format : AC-3
Format/Info : Audio Coding 3
Commercial name : Dolby Digital
Codec ID : A_AC3
Duration : 2 h 13 min
Bit rate mode : Constant
Bit rate : 640 kb/s
Channel(s) : 6 channels
Channel layout : L R C LFE Ls Rs
Sampling rate : 48.0 kHz
Frame rate : 31.250 FPS (1536 SPF)
Bit depth : 16 bits
Compression mode : Lossy
Stream size : 613 MiB (6%)
Title : Original
Language : English
Service kind : Complete Main
Default : No
Forced : No

Text #1
ID : 6
Format : UTF-8
Codec ID : S_TEXT/UTF8
Codec ID/Info : UTF-8 Plain Text
Duration : 2 h 0 min
Bit rate : 1 b/s
Count of elements : 25
Stream size : 1.13 KiB (0%)
Title : Forced
Language : Russian
Default : Yes
Forced : Yes

Text #2
ID : 7
Format : UTF-8
Codec ID : S_TEXT/UTF8
Codec ID/Info : UTF-8 Plain Text
Duration : 2 h 4 min
Bit rate : 70 b/s
Count of elements : 1249
Stream size : 63.9 KiB (0%)
Title : Full
Language : Russian
Default : No
Forced : No

Text #3
ID : 8
Format : UTF-8
Codec ID : S_TEXT/UTF8
Codec ID/Info : UTF-8 Plain Text
Duration : 2 h 3 min
Bit rate : 68 b/s
Count of elements : 1190
Stream size : 62.2 KiB (0%)
Title : Full v.2
Language : Russian
Default : No
Forced : No

Text #4
ID : 9
Format : UTF-8
Codec ID : S_TEXT/UTF8
Codec ID/Info : UTF-8 Plain Text
Duration : 2 h 13 min
Bit rate : 1 b/s
Count of elements : 28
Stream size : 1.19 KiB (0%)
Title : Forced
Language : Ukrainian
Default : No
Forced : No

Text #5
ID : 10
Format : UTF-8
Codec ID : S_TEXT/UTF8
Codec ID/Info : UTF-8 Plain Text
Duration : 2 h 3 min
Bit rate : 40 b/s
Count of elements : 1185
Stream size : 36.8 KiB (0%)
Language : English
Default : No
Forced : No

Menu
00:00:00.000 : :Capítulo 01
00:07:15.310 : :Capítulo 02
00:21:39.381 : :Capítulo 03
00:32:56.850 : :Capítulo 04
00:41:41.124 : :Capítulo 05
00:50:26.190 : :Capítulo 06
00:58:21.540 : :Capítulo 07
01:12:02.860 : :Capítulo 08
01:20:23.610 : :Capítulo 09
01:34:50.059 : :Capítulo 10
01:43:08.557 : :Capítulo 11
01:51:42.237 : :Capítulo 12
02:00:31.641 : :Capítulo 13




Скачать Фантастические твари: Преступления Грин-де-Вальда через торрент https://i109.fastpic.ru/big/2019/0227/36/e2cf67f48b3b184001d1e7084c84f836.jpg Скачать, смотреть онлайн Фантастические твари: Преступления Грин-де-Вальда бесплантно в хорошем качестве Описание: Могущественный тёмный волшебник Геллерт Грин-де-Вальд пойман в Штатах, но не собирается молча сидеть в темнице и устраивает ... 10 10 15
Info! Золотая раздача, скачанное не засчитывается.
Торрент: Зарегистрирован [2019-03-08 15:56] · скачан: 692 раз
Статус: √ проверено
Размер: 10.34 GB
Как cкачать? Как скачать Фантастические твари: Преступления Грин-де-Вальда через торрент | UTorrent

% Раздел Тема Автор DL S | L
Фильмы (HD 720p, 1080p) (48-60 fps) [ 5.51 GB ] Фантастические твари: Преступления Грин-де-Вальда / Fantastic Beasts: The Crimes of Grindelwald | Дубляж BD CEE | DLRip 720p / 60 FPS BD CEE slaventi-69 Скачать
3 | 0
3D Фильмы [ 6.38 GB ] Фантастические твари: Преступления Грин-де-Вальда / Fantastic Beasts: The Crimes of Grindelwald | Лицензия | 1080p, Дубляж Лицензия slaventi-69 Скачать
1 | 1
Фильмы (WEB-DL 720p, 1080p) [ 5.28 GB ] Фантастические твари: Преступления Грин-де-Вальда / Fantastic Beasts: The Crimes of Grindelwald | iTunes | 1080p bober100 Скачать
1 | 0
3D Фильмы [ 18.55 GB ] Фантастические твари: Преступления Грин-де-Вальда в 3Д / Fantastic Beasts: The Crimes of Grindelwald 3D | Лицензия | 1080p serega768 Скачать
1 | 0
3D Фильмы [ 11.48 GB ] Фантастические твари: Преступления Грин-де-Вальда в 3Д / Fantastic Beasts: The Crimes of Grindelwald 3D | Лицензия | 1080p sheker187 Скачать
1 | 0
Фильмы (Blu-ray, BD-Remux, HDDVD) [ 38.42 GB ] Фантастические твари: Преступления Грин-де-Вальда / Fantastic Beasts: The Crimes of Grindelwald | Лицензия | BD Remux 1080p bober100 Скачать
1 | 0
Фильмы 2018 [DVDrip, WEB-DLRip, HDrip] (DUB, MVO) [ 2.68 GB ] Фантастические твари: Преступления Грин-де-Вальда / Fantastic Beasts: The Crimes of Grindelwald | Лицензия | BDRip-AVC bober100 Скачать
1 | 0

28-11-2019 20:33  


Отключить вcю реклaмy на сайте, в т.ч. и в плеере онлайн просмотра!

12-03-2019 14:14 Фантастические твари: Преступления Грин-де-Вальда Скачать торрент  

Норм. Хорошее продолжение (нет). Это больше похоже на отдельный фильм. Не увидел связи с первой части, кроме имён героев.
P.s.: нужно переименовать фильм.



    Дорогой пользователь! Огромная просьба, поблагодарите релизера, оцените раздачу и оставьте свои комментарий, если Вы скачали Фантастические твари: Преступления Грин-де-Вальда через торрент бесплатно!!
    Комментировать посты могут только пользователи прошедшие не сложную регистрацию
    Показать сообщения:    


    Фантастические твари: Преступления Грин-де-Вальда через торрент
    Скачать бесплатно Фантастические твари: Преступления Грин-де-Вальда
    Фантастические твари: Преступления Грин-де-Вальда скачать торрент
    Фантастические твари: Преступления Грин-де-Вальда смотреть онлайн
    Cкачать фильм Фантастические твари: Преступления Грин-де-Вальда бесплатно
    Фантастические твари: Преступления Грин-де-Вальда скачать торрент в хорошем качестве
    Фантастические твари: Преступления Грин-де-Вальда смотреть онлайн бесплатно в хорошем качестве
    Вы не можете начинать темы
    Вы не можете отвечать на сообщения
    Вы не можете редактировать свои сообщения
    Вы не можете удалять свои сообщения
    Вы не можете голосовать в опросах
    Вы не можете прикреплять файлы к сообщениям
    Вы можете скачивать файлы
    Фантастические твари: Преступления Грин-де-Вальда / Fantastic Beasts: The Crimes of Grindelwald [2018, фэнтези, приключения, семейный, BDRip 1080p] MVO [HDRezka] +Дубляж [Лицензия] смотреть онлайн, скачать торрент picoco.icu