Ссылка на приватное зеркало нашего сайта всего за 1$. Внимание количество ограничено!!!

2 сезон

iTunes

1 сезон

1

2 сезон

2 сезон

iTunes

1 сезон

RePack

30

Ultimate

ВАЖНО

ИГРА 18+

pack

RePack

MK11
pack

Забери бонус

RePack

jed

!!Акция!!

Alien_Rage

RePack

fifa19

RePack

Assassins Creed: Odyssey

RePack

NEED FOR SPEED™ PAYBACK

4 сезон

9 сезон

Бесстыжие 9 сезон

Все сериалы

все сериалы на PB.wtf

RePack

FAR CRY 5
  

Чума / La Peste / Сезон: 1 / Серии: 1-6 из 6 (Альберто Родригес, Дэвид Уллоа, Пако Р. Баньос) [2018, Драма, история, детектив, BDRip 1080p] MVO [Good People] pb.wtf

Чума через торрент pb.wtf

Размер: 34.47 GB | Добавлен: 1 год 8 мес. назад | Торрент скачан:30 раз
Скачать  

08-03-2019 18:18 Чума Скачать торрент  

Чума / La Peste Оригинальное название: La Peste
Русское название: Чума
Год выпуска: 2018
Страна: Испания
Жанр: Драма, история, детектив
Продолжительность: ~00:50:00 мин.
Перевод: Профессиональный (многоголосый закадровый) | Good People
Субтитры: Да (русские, английские, испанские)

Режиссёр: Альберто Родригес, Дэвид Уллоа, Пако Р. Баньос

rating Сэмпл

В ролях:

Пабло Молинеро, Пако Леон, Серджо Кастелланос, Маноло Соло, Патриция Лопез, Лупе дель Хунко, Томас дел Эстал, Пако Тоус, Антонио Хиль-Мартинес и другие

Описание:

На дворе стоит шестнадцатый век. Действие происходит в Севилье, которая живет по своим правилам и законам. В городе прокатывается серия странных убийств, жертвами которых становятся, в том числе, и представители высших слоев населения. И то время как по всей Европе бушует чума, члены местной охраны правопорядка, несмотря на все трудности и проблемы, занимаются расследованием этих загадочных преступлений. Однако у них никак не получается выйти на след убийцы. Неожиданно за дело берется мужчина по имени Матео, который просто обязан расследовать эти убийства, ведь в противном случае его ждет незавидная участь, уготовленная инквизиторами. Лишь раскрыв преступления, герой сможет добиться прощения Святого Престола. Но получиться ли у Матео докопаться до правды?

Качество: BDRip 1080p
Формат: MKV
Видео кодек: AVC
Аудио кодек: AC3

Видео: AVC, 1920x960 (16:9), 23.976 fps, ~14404kbps, 0.298 bit/pixel

Аудио 1: Dolby AC3 48000Hz 6ch 640 Kbps Русский
Аудио 2: Dolby AC3 48000Hz 6ch 640 Kbps Оригинал


Реклама: Присутствует звуковая (два раза в начале и конце по 12 сек.)
General
Unique ID                                : 241500407323932708136488315329881028966 (0xB5AF495EECC05937B09D29DBCB8FB966)
Complete name                            : La.peste.S01E01.La.Palabra.1080p.BDRip.DD5.1.x264-GoodPeople.mkv
Format                                   : Matroska
Format version                           : Version 4
File size                                : 5.29 GiB
Duration                                 : 50 min 28 s
Overall bit rate                         : 15.0 Mb/s
Encoded date                             : UTC 2019-03-02 02:22:04
Writing application                      : mkvmerge v17.0.0 ('Be Ur Friend') 64-bit
Writing library                          : libebml v1.3.5 + libmatroska v1.4.8

Video
ID                                       : 1
Format                                   : AVC
Format/Info                              : Advanced Video Codec
Format profile                           : High@L4.1
Format settings                          : CABAC / 4 Ref Frames
Format settings, CABAC                   : Yes
Format settings, ReFrames                : 4 frames
Codec ID                                 : V_MPEG4/ISO/AVC
Duration                                 : 50 min 28 s
Bit rate                                 : 13.7 Mb/s
Width                                    : 1 920 pixels
Height                                   : 960 pixels
Display aspect ratio                     : 2.000
Frame rate mode                          : Constant
Frame rate                               : 25.000 FPS
Color space                              : YUV
Chroma subsampling                       : 4:2:0
Bit depth                                : 8 bits
Scan type                                : Progressive
Bits/(Pixel*Frame)                       : 0.298
Stream size                              : 4.84 GiB (91%)
Writing library                          : x264 core 146 r2538kMod 121396c
Encoding settings                        : cabac=1 / ref=4 / deblock=1:-3:-3 / analyse=0x3:0x133 / me=umh / subme=11 / psy=1 / fade_compensate=0.00 / psy_rd=1.00:0.00 / mixed_ref=1 / me_range=32 / chroma_me=1 / trellis=2 / 8x8dct=1 / cqm=0 / deadzone=21,11 / fast_pskip=1 / chroma_qp_offset=-2 / threads=48 / lookahead_threads=7 / sliced_threads=0 / nr=0 / decimate=1 / interlaced=0 / bluray_compat=0 / constrained_intra=0 / fgo=0 / bframes=10 / b_pyramid=2 / b_adapt=2 / b_bias=0 / direct=3 / weightb=1 / open_gop=0 / weightp=2 / keyint=250 / keyint_min=25 / scenecut=40 / intra_refresh=0 / rc=crf / mbtree=0 / crf=15.0000 / qcomp=0.65 / qpmin=0 / qpmax=69 / qpstep=4 / ip_ratio=1.25 / pb_ratio=1.20 / aq=1:0.60
Language                                 : Spanish
Default                                  : Yes
Forced                                   : No

Audio #1
ID                                       : 2
Format                                   : AC-3
Format/Info                              : Audio Coding 3
Commercial name                          : Dolby Digital
Codec ID                                 : A_AC3
Duration                                 : 50 min 28 s
Bit rate mode                            : Constant
Bit rate                                 : 640 kb/s
Channel(s)                               : 6 channels
Channel layout                           : L R C LFE Ls Rs
Sampling rate                            : 48.0 kHz
Frame rate                               : 31.250 FPS (1536 SPF)
Bit depth                                : 16 bits
Compression mode                         : Lossy
Stream size                              : 231 MiB (4%)
Language                                 : Russian
Service kind                             : Complete Main
Default                                  : Yes
Forced                                   : No

Audio #2
ID                                       : 3
Format                                   : AC-3
Format/Info                              : Audio Coding 3
Commercial name                          : Dolby Digital
Codec ID                                 : A_AC3
Duration                                 : 50 min 28 s
Bit rate mode                            : Constant
Bit rate                                 : 640 kb/s
Channel(s)                               : 6 channels
Channel layout                           : L R C LFE Ls Rs
Sampling rate                            : 48.0 kHz
Frame rate                               : 31.250 FPS (1536 SPF)
Bit depth                                : 16 bits
Compression mode                         : Lossy
Stream size                              : 231 MiB (4%)
Language                                 : Spanish
Service kind                             : Complete Main
Default                                  : No
Forced                                   : No

Text #1
ID                                       : 4
Format                                   : UTF-8
Codec ID                                 : S_TEXT/UTF8
Codec ID/Info                            : UTF-8 Plain Text
Duration                                 : 47 min 47 s
Bit rate                                 : 60 b/s
Count of elements                        : 463
Stream size                              : 21.1 KiB (0%)
Language                                 : Russian
Default                                  : No
Forced                                   : No

Text #2
ID                                       : 5
Format                                   : UTF-8
Codec ID                                 : S_TEXT/UTF8
Codec ID/Info                            : UTF-8 Plain Text
Duration                                 : 47 min 46 s
Bit rate                                 : 32 b/s
Count of elements                        : 443
Stream size                              : 11.5 KiB (0%)
Language                                 : English
Default                                  : No
Forced                                   : No

Text #3
ID                                       : 6
Format                                   : UTF-8
Codec ID                                 : S_TEXT/UTF8
Codec ID/Info                            : UTF-8 Plain Text
Duration                                 : 48 min 13 s
Bit rate                                 : 34 b/s
Count of elements                        : 477
Stream size                              : 12.3 KiB (0%)
Language                                 : Spanish
Default                                  : No
Forced                                   : No

Menu
00:00:00.000                             : en:Chapter 01
00:03:56.720                             : en:Chapter 02
00:16:07.360                             : en:Chapter 03
00:27:39.440                             : en:Chapter 04
00:38:05.200                             : en:Chapter 05
00:48:26.040                             : en:Chapter 06
pb.wtf



Скачать Чума через торрент https://i109.fastpic.ru/big/2019/0306/85/260bd814b0d1e0f921a8e3a99622bb85.png Скачать фильм Чума через торрент бесплантно в хорошем качестве Описание: На дворе стоит шестнадцатый век. Действие происходит в Севилье, которая живет по своим правилам и законам. В городе прокатывается ... 7 10 3
Торрент: Зарегистрирован [2019-03-08 18:18] · скачан: 30 раз
Статус: √ проверено
Размер: 34.47 GB
Как cкачать? Как скачать Чума через торрент | qTorrent

% Раздел Тема Автор DL S | L
Зарубежные сериалы [ 33.94 GB ] Чума / La Peste / Сезон: 1 / Серии: 1-6 из 6 [2018 история BDRip 1080p] MVO [TVShows] bober100 Скачать
1 | 0
Зарубежные сериалы [ 4.96 GB ] Чума / La Peste / Сезон: 1 / Серии: 1-6 из 6 [2018 история HDRip] MVO [TVShows] bober100 Скачать
1 | 0
Зарубежные сериалы [ 11.12 GB ] Чума / La Peste / Сезон: 1 / Серии: 1-6 из 6 [2018 история BDRip 720p] MVO [TVShows] bober100 Скачать
1 | 0

28-11-2019 20:33  

Отключить всю рекламу на сайте

    Дорогой пользователь! Огромная просьба, поблагодарите релизера, оцените раздачу и оставьте свои комментарий, если Вы скачали Чума через торрент бесплатно! Внесите свою лепту в развитие PiratBit!
    Комментировать посты могут только пользователи прошедшие не сложную регистрацию
    Показать сообщения:    

    Чума через торрент
    Скачать бесплатно Чума
    Чума скачать торрент
    Чума смотреть онлайн
    Cкачать фильм Чума бесплатно
    Чума скачать торрент в хорошем качестве
    Чума смотреть онлайн бесплатно в хорошем качестве


    Вы не можете начинать темы
    Вы не можете отвечать на сообщения
    Вы не можете редактировать свои сообщения
    Вы не можете удалять свои сообщения
    Вы не можете голосовать в опросах
    Вы не можете прикреплять файлы к сообщениям
    Вы можете скачивать файлы