Ссылка на приватное зеркало нашего сайта всего за 1$. Внимание количество ограничено!!!

2 сезон

iTunes

1 сезон

1

2 сезон

2 сезон

iTunes

1 сезон

RePack

30

Новинка

ВАЖНО

ИГРА 18+

pack

RePack

MK11
pack

Забери бонус

RePack

jed

!!Акция!!

Alien_Rage

RePack

fifa19

RePack

Assassins Creed: Odyssey

RePack

NEED FOR SPEED™ PAYBACK

4 сезон

9 сезон

Бесстыжие 9 сезон

Все сериалы

все сериалы на PB.wtf

RePack

FAR CRY 5
  

Обратная сторона / По ту сторону / Counterpart / Сезон: 2 / Серии: 1-10 из 10 (Алик Сахаров, Мортен Тильдум) [2018, Фантастика, триллер, драма, WEBRip 720p] MVO [Good People] pb.wtf

Обратная сторона через торрент pb.wtf

Размер: 10.43 GB | Добавлен: 1 год 8 мес. назад | Торрент скачан:35 раз
Скачать  

08-03-2019 18:57 Обратная сторона Скачать торрент  

По ту сторону / Counterpart Оригинальное название: Counterpart
Русское название: По ту сторону
Год выпуска: 2018
Страна: США
Жанр: Фантастика, триллер, драма
Продолжительность: ~00:58:00 мин.
Перевод: Профессиональный (многоголосый закадровый) | Студия Good People
Субтитры: Да (английские)

Режиссёр: Алик Сахаров, Мортен Тильдум

rating

В ролях:

Дж.К. Симмонс, Гарри Ллойд, Назанин Бониади, Оливия Уильямс, Сара Серайокко, Ульрих Томсен, Бернхард Форхер, Кеннет Чои и др.

Описание:

Перед вами интереснейшая история про Говарда Силке. Этот человек работает в агентстве, которое якобы занимается чем-то обыденным и типичным для своего рода предприятий. Однако вскоре персонаж узнает страшную тайну своего работодателя. Оказывается, что он является главой не просто компании, которая занимается какими-то там бюрократическими делами, но еще и оберегает мир от вторжения представителей параллельной вселенной. Мы сталкиваемся с вами с настоящим чудом в реальности. Говард Силке обнаруживает портал в параллельную вселенную, который бережно охраняется верными агентами его фирмы.

Качество: WEBRip 720p
Формат: MKV
Видео кодек: AVC
Аудио кодек: AC3

Видео: AVC, 1280x720 (16:9), 23.976 fps, ~1454kbps, 0.060 bit/pixel

Аудио 1: Dolby AC3 48000Hz 6ch 640 Kbps Русский
Аудио 2: Dolby E-AC3 48000Hz 6ch 640 Kbps Оригинал


Реклама: Присутствует звуковая (два раза в начале и конце по 12 сек.)
General
Unique ID                   : 210549755337705271277965992173743079065 (0x9E6668696FAD27948D9215A0E7577E99)
Complete name               : Counterpart.S02E01.Inside.Out.720p.AMZN.WEB-DL.DDP5.1.H264-GoodPeople.mkv
Format                      : Matroska
Format version              : Version 4 / Version 2
File size                   : 1.09 GiB
Duration                    : 58mn 34s
Overall bit rate            : 2 661 Kbps
Encoded date                : UTC 2018-12-20 02:23:11
Writing application         : mkvmerge v17.0.0 ('Be Ur Friend') 64-bit
Writing library             : libebml v1.3.5 + libmatroska v1.4.8
DURATION                    : 00:58:34.688000000
NUMBER_OF_FRAMES            : 109834
NUMBER_OF_BYTES             : 281175040
_STATISTICS_WRITING_APP     : mkvmerge v17.0.0 ('Be Ur Friend') 64-bit
_STATISTICS_WRITING_DATE_UT : 2018-12-20 02:23:11
_STATISTICS_TAGS            : BPS DURATION NUMBER_OF_FRAMES NUMBER_OF_BYTES

Video
ID                          : 1
Format                      : AVC
Format/Info                 : Advanced Video Codec
Format profile              : High@L3.1
Format settings, CABAC      : Yes
Format settings, ReFrames   : 5 frames
Codec ID                    : V_MPEG4/ISO/AVC
Duration                    : 58mn 34s
Bit rate                    : 1 328 Kbps
Width                       : 1 280 pixels
Height                      : 720 pixels
Display aspect ratio        : 16:9
Frame rate mode             : Constant
Frame rate                  : 23.976 fps
Color space                 : YUV
Chroma subsampling          : 4:2:0
Bit depth                   : 8 bits
Scan type                   : Progressive
Bits/(Pixel*Frame)          : 0.060
Stream size                 : 556 MiB (50%)
Default                     : Yes
Forced                      : No
Color range                 : Limited
Color primaries             : BT.709
Transfer characteristics    : BT.709
Matrix coefficients         : BT.709

Audio #1
ID                          : 2
Format                      : AC-3
Format/Info                 : Audio Coding 3
Mode extension              : CM (complete main)
Format settings, Endianness : Big
Codec ID                    : A_AC3
Duration                    : 58mn 34s
Bit rate mode               : Constant
Bit rate                    : 640 Kbps
Channel(s)                  : 6 channels
Channel positions           : Front: L C R, Side: L R, LFE
Sampling rate               : 48.0 KHz
Compression mode            : Lossy
Stream size                 : 268 MiB (24%)
Language                    : Russian
Default                     : Yes
Forced                      : No

Audio #2
ID                          : 3
Format                      : E-AC-3
Format/Info                 : Audio Coding 3
Format settings, Endianness : Big
Codec ID                    : A_EAC3
Duration                    : 58mn 34s
Bit rate mode               : Constant
Bit rate                    : 640 Kbps
Channel(s)                  : 6 channels
Channel positions           : Front: L C R, Side: L R, LFE
Sampling rate               : 48.0 KHz
Compression mode            : Lossy
Stream size                 : 268 MiB (24%)
Language                    : English
Default                     : No
Forced                      : No

Text
ID                          : 4
Format                      : UTF-8
Codec ID                    : S_TEXT/UTF8
Codec ID/Info               : UTF-8 Plain Text
Title                       : English (SDH)
Language                    : English
Default                     : No
Forced                      : No
скриншот  скриншот  скриншот  
pb.wtf



Скачать Обратная сторона через торрент https://i108.fastpic.ru/big/2018/1220/f3/945a2d197eea43adc898d2f4b1b29df3.png Скачать фильм Обратная сторона через торрент бесплантно в хорошем качестве Описание: Перед вами интереснейшая история про Говарда Силке. Этот человек работает в агентстве, которое якобы занимается чем-то обыденным ... 9.8 10 4
Торрент: Зарегистрирован [2019-03-08 18:57] · скачан: 35 раз
Статус: √ проверено
Размер: 10.43 GB
Как cкачать? Как скачать Обратная сторона через торрент | qTorrent

% Раздел Тема Автор DL S | L

28-11-2019 20:33  

Отключить всю рекламу на сайте

    Дорогой пользователь! Огромная просьба, поблагодарите релизера, оцените раздачу и оставьте свои комментарий, если Вы скачали Обратная сторона через торрент бесплатно! Внесите свою лепту в развитие PiratBit!
    Комментировать посты могут только пользователи прошедшие не сложную регистрацию
    Показать сообщения:    

    Обратная сторона через торрент
    Скачать бесплатно Обратная сторона
    Обратная сторона скачать торрент
    Обратная сторона смотреть онлайн
    Cкачать фильм Обратная сторона бесплатно
    Обратная сторона скачать торрент в хорошем качестве
    Обратная сторона смотреть онлайн бесплатно в хорошем качестве


    Вы не можете начинать темы
    Вы не можете отвечать на сообщения
    Вы не можете редактировать свои сообщения
    Вы не можете удалять свои сообщения
    Вы не можете голосовать в опросах
    Вы не можете прикреплять файлы к сообщениям
    Вы можете скачивать файлы