Ссылка на приватное зеркало нашего сайта всего за 1$. Внимание количество ограничено!!!

2 сезон

iTunes

1 сезон

1

iTunes

iTunes

iTunes

1 сезон

RePack

30

ИГРА 18+

pack

ВАЖНО

!!Акция!!

Alien_RageХит недели

RePack

MK11
pack

Забери бонус

RePack

jed

!!Акция!!

Alien_Rage

RePack

fifa19

RePack

Assassins Creed: Odyssey

RePack

NEED FOR SPEED™ PAYBACK

4 сезон

9 сезон

Бесстыжие 9 сезон

Все сериалы

все сериалы на PB.wtf

RePack

FAR CRY 5
  

Северное сияние. О чем молчат русалки / Серии: 1-2 из 2 (Владимир Нахабцев) [2019, Детектив, WEB-DL 720p] pb.wtf

Северное сияние. О чем молчат русалки через торрент pb.wtf

Раздают: 1 [ 0 KB/s ]
Размер: 1.76 GB | Добавлен: 1 год 7 мес. назад | Торрент скачан:79 раз
Скачать  

08-03-2019 20:20 Северное сияние. О чем молчат русалки Скачать торрент  

Северное сияние. О чем молчат русалки Год выпуска: 2019
Страна: Россия
Жанр: Детектив
Продолжительность: ~ 00:45:00
Перевод: Не требуется
Субтитры: отсутствуют

Режиссер: Владимир Нахабцев



В ролях:

Ирина Горячева, Анна Дулова, Никита Плащевский, Алексей Симонов, Виталия Корниенко, Константин Шелестун, Галина Бокашевская, Хельга Филиппова, Владимир Котов

Описание:

Автор детективных бестселлеров Агата Север живет на одном из отдаленных островов Северной Карелии. На остров возвращается опасный преступник, который берет в заложницы Марусю, помощницу писательницы. Чтобы спасти ее, Агате необходимо раскрыть убийство молодой девушки, произошедшее на острове двадцать лет назад. Распутывая старое преступление, Север начинает подозревать, что к нему может быть причастен местный врач Павел. Проблема в том, что к этому моменту Агата влюбилась в молчаливого доктора.

Качество: WEB-DL 720p
Формат: MKV

Видео: MPEG-4 AVC, ~ 2569 Кбит/с, 1280x720
Аудио: AC3, 2 ch, 192 Кбит/с
скриншот  скриншот  скриншот  скриншот  

Общее
Уникальный идентификатор : 211761338089451215153579900837438115718 (0x9F4FC00DB2690C1D9107D14C0A974F86)
Полное имя : D:\Северное сияние. О чем молчат русалки. (2019).WEB-DL 720p. Files-x\01. Северное сияние. О чем молчат русалки. (2019). WEB-DL 720p. Files-x.mkv
Формат : Matroska
Версия формата : Version 2
Размер файла : 898 Мбайт
Продолжительность : 45 м. 30 с.
Общий поток : 2759 Кбит/сек
Дата кодирования : UTC 2019-03-08 13:35:46
Программа кодирования : mkvmerge v7.8.0 ('River Man') 32bit built on Apr 3 2015 12:11:22
Библиотека кодирования : libebml v1.3.1 + libmatroska v1.4.2

Видео
Идентификатор : 1
Формат : AVC
Формат/Информация : Advanced Video Codec
Профиль формата : High@L4
Параметр CABAC формата : Да
Параметр RefFrames формата : 4 кадра
Идентификатор кодека : V_MPEG4/ISO/AVC
Продолжительность : 45 м. 30 с.
Битрейт : 2569 Кбит/сек
Ширина : 1280 пикселей
Высота : 720 пикселей
Соотношение сторон : 16:9
Режим частоты кадров : Постоянный
Частота кадров : 25,000 кадров/сек
Цветовое пространство : YUV
Субдискретизация насыщенности : 4:2:0
Битовая глубина : 8 бит
Тип развёртки : Прогрессивная
Бит/(Пиксели*Кадры) : 0.112
Размер потока : 818 Мбайт (91%)
Библиотека кодирования : x264 core 148
Настройки программы : cabac=1 / ref=3 / deblock=1:0:0 / analyse=0x3:0x113 / me=hex / subme=7 / psy=1 / psy_rd=1.00:0.00 / mixed_ref=1 / me_range=16 / chroma_me=1 / trellis=1 / 8x8dct=1 / cqm=0 / deadzone=21,11 / fast_pskip=1 / chroma_qp_offset=-2 / threads=22 / lookahead_threads=3 / sliced_threads=0 / nr=0 / decimate=1 / interlaced=0 / bluray_compat=0 / constrained_intra=0 / bframes=6 / b_pyramid=2 / b_adapt=1 / b_bias=0 / direct=1 / weightb=1 / open_gop=0 / weightp=2 / keyint=50 / keyint_min=26 / scenecut=0 / intra_refresh=0 / rc_lookahead=40 / rc=2pass / mbtree=1 / bitrate=2569 / ratetol=1.0 / qcomp=0.60 / qpmin=0 / qpmax=69 / qpstep=4 / cplxblur=20.0 / qblur=0.5 / vbv_maxrate=3854 / vbv_bufsize=10279 / nal_hrd=none / filler=0 / ip_ratio=1.40 / aq=1:1.00
Default : Да
Forced : Нет

Аудио
Идентификатор : 2
Формат : AC-3
Формат/Информация : Audio Coding 3
Расширение режима : CM (complete main)
Параметр Endianness формата : Big
Идентификатор кодека : A_AC3
Продолжительность : 45 м. 30 с.
Вид битрейта : Постоянный
Битрейт : 192 Кбит/сек
Каналы : 2 канала
Расположение каналов : Front: L R
Частота : 48,0 КГц
Частота кадров : 31,250 кадров/сек (1536 spf)
Метод сжатия : С потерями
Размер потока : 62,5 Мбайт (7%)
Default : Да
Forced : Нет

pb.wtf



Скачать Северное сияние. О чем молчат русалки через торрент https://i109.fastpic.ru/big/2019/0308/66/6672e0b7bb59a2b28b30c43d79f31566.jpg Скачать фильм Северное сияние. О чем молчат русалки через торрент бесплантно в хорошем качестве Описание: Автор детективных бестселлеров Агата Север живет на одном из отдаленных островов Северной Карелии. На остров возвращается опасный ... 8.2 10 5
Торрент: Зарегистрирован [2019-03-08 20:20] · скачан: 79 раз
Статус: √ проверено
Размер: 1.76 GB
Как cкачать? Как скачать Северное сияние. О чем молчат русалки через торрент | qTorrent

% Раздел Тема Автор DL S | L
Наши сериалы [ 1.4 GB ] Северное сияние. О чём молчат русалки / Серии: 1-2 из 2 [2019 WEBRip-AVC] aleksan55 Скачать
1 | 0


Последний раз редактировалось: bober100 (2019-03-09 04:33), всего редактировалось 1 раз

28-11-2019 20:33  

Отключить всю рекламу на сайте

08-03-2019 20:55 Северное сияние. О чем молчат русалки Скачать торрент  

Вот спасибо добрый человек.А будет ли продолжение?Если не ошибаюсь это уже четвёртая часть. pb.wtf



    Дорогой пользователь! Огромная просьба, поблагодарите релизера, оцените раздачу и оставьте свои комментарий, если Вы скачали Северное сияние. О чем молчат русалки через торрент бесплатно! Внесите свою лепту в развитие PiratBit!
    Комментировать посты могут только пользователи прошедшие не сложную регистрацию
    Показать сообщения:    

    Северное сияние. О чем молчат русалки через торрент
    Скачать бесплатно Северное сияние. О чем молчат русалки
    Северное сияние. О чем молчат русалки скачать торрент
    Северное сияние. О чем молчат русалки смотреть онлайн
    Cкачать фильм Северное сияние. О чем молчат русалки бесплатно
    Северное сияние. О чем молчат русалки скачать торрент в хорошем качестве
    Северное сияние. О чем молчат русалки смотреть онлайн бесплатно в хорошем качестве


    Вы не можете начинать темы
    Вы не можете отвечать на сообщения
    Вы не можете редактировать свои сообщения
    Вы не можете удалять свои сообщения
    Вы не можете голосовать в опросах
    Вы не можете прикреплять файлы к сообщениям
    Вы можете скачивать файлы