Ссылка на приватное зеркало всего за 1$. Внимание количество ограничено!!!

OK

1+1

iTunes

мы

OK

1

WEB-DLRip

Джокер

Пифагор

Ведьмак / The Witcher сериал

iTunes

ПШазам

ОК

Оно 2

iTunes

30
pack

Вам бонус

ВАЖНО

!!Акция!!

Alien_RageХит недели

RePack

Resident Evil 21

ИГРА 18+

pack

RePack

jed

RePack

fifa19

RePack

Assassins Creed: Odyssey

RePack

NEED FOR SPEED™ PAYBACK

4 сезон

9 сезон

Бесстыжие 9 сезон

Все сериалы

все сериалы на PB.wtf

RePack

FAR CRY 5
  

Убийца этажом ниже / The Killer Downstairs (Тони Дин Смит) [2019, Триллер, HDTVRip 720p] MVO [AlphaProject] pb.wtf

Убийца этажом ниже через торрент pb.wtf

Размер: 2.92 GB | Добавлен: 10 мес. назад | Торрент скачан:63 раза
Скачать  

09-03-2019 05:19 Убийца этажом ниже Скачать торрент  

Убийца этажом ниже / The Killer Downstairs Год выпуска: 2019
Страна: Канада
Жанр: Триллер
Продолжительность: 01:25:50
Перевод: Любительский (многоголосый) | AlphaProject
Субтитры: отсутствуют

Режиссер: Тони Дин Смит

rating

В ролях:

Синди Басби, Маркус Роснер, Донна Бенедикто, Эми Анеке, Джош Байер ,Бен Уилкинсон, Элисон Арайя, Адриан Формоза, Пол Герберт

Описание:

Алисон Питерс недавно потеряла работу и чтобы заработать денег, она решает сдавать в аренду комнату в подвале своего дома. К ней приезжает первый арендатор - Джеймс Брюэр, он совсем недавно развёлся со своей женой. В какой-то момент Джеймс и Алисон влюбляются друг в друга, и чем ярче развиваетя их роман, тем больше людей из окружения Алисон пропадают.

Качество: HDTVRip 720p
Формат: MKV

Видео: h.264,4 480 kb/s, 1280x716
Аудио: Русский, (AC3, 2 ch, 384 Кбит/с)
скриншот  скриншот  скриншот  

Общее
Уникальный идентификатор : 211393679481914991702623186895027039317 (0x9F08F115AA68D73FA5F7327E2E5BEC55)
Полное имя : D:\the.killer.downstairs.2019.Pa.HDTV.72Op_KOSHARA.mkv
Формат : Matroska
Версия формата : Version 2
Размер файла : 2,92 Гбайт
Продолжительность : 1 ч. 25 м.
Режим общего битрейта : Переменный
Общий поток : 4865 Кбит/сек
Дата кодирования : UTC 2019-03-08 16:02:36
Программа кодирования : mkvmerge v8.3.0 ('Over the Horizon') 64bit
Библиотека кодирования : libebml v1.3.1 + libmatroska v1.4.2

Видео
Идентификатор : 1
Формат : AVC
Формат/Информация : Advanced Video Codec
Профиль формата : High@L4.1
Параметр CABAC формата : Да
Параметр RefFrames формата : 4 кадра
Идентификатор кодека : V_MPEG4/ISO/AVC
Продолжительность : 1 ч. 25 м.
Вид битрейта : Переменный
Битрейт : 4480 Кбит/сек
Максимальный битрейт : 5000 Кбит/сек
Ширина : 1280 пикселей
Высота : 716 пикселей
Соотношение сторон : 16:9
Режим частоты кадров : Постоянный
Частота кадров : 23,976 (24000/1001) кадра/сек
Стандарт вещания : Component
Цветовое пространство : YUV
Субдискретизация насыщенности : 4:2:0
Битовая глубина : 8 бит
Тип развёртки : Прогрессивная
Бит/(Пиксели*Кадры) : 0.200
Размер потока : 2,63 Гбайт (90%)
Default : Да
Forced : Нет
Цветовой диапазон : Limited
Основные цвета : BT.709
Характеристики трансфера : BT.709
Коэффициенты матрицы : BT.709

Аудио
Идентификатор : 2
Формат : AC-3
Формат/Информация : Audio Coding 3
Расширение режима : CM (complete main)
Параметр Endianness формата : Big
Идентификатор кодека : A_AC3
Продолжительность : 1 ч. 25 м.
Вид битрейта : Постоянный
Битрейт : 384 Кбит/сек
Каналы : 2 канала
Расположение каналов : Front: L R
Частота : 48,0 КГц
Частота кадров : 31,250 кадров/сек (1536 spf)
Метод сжатия : С потерями
Размер потока : 236 Мбайт (8%)
Default : Да
Forced : Нет

pb.wtf



Скачать Убийца этажом ниже через торрент https://b.radikal.ru/b27/1903/db/8337bda2d568.jpg Скачать фильм Убийца этажом ниже через торрент бесплантно в хорошем качестве Описание: Алисон Питерс недавно потеряла работу и чтобы заработать денег, она решает сдавать в аренду комнату в подвале своего дома. К ней ... 10 10 4
Торрент: Зарегистрирован [2019-03-09 05:19] · скачан: 63 раз
Статус: T временная
Размер: 2.92 GB
Как cкачать? Как скачать Убийца этажом ниже через торрент | qTorrent

% Раздел Тема Автор DL S | L
T Фильмы (мультфильмы) cо спонсором показа (Новинки AVI/MKV) [ 1.37 GB ] Убийца этажом ниже / The Killer Downstairs [2019 HDTVRip] MVO [AlphaProject] bober100 Скачать
2 | 1

28-11-2019 20:33  

Отключить всю рекламу на сайте

    Дорогой пользователь! Огромная просьба, поблагодарите релизера, оцените раздачу и оставьте свои комментарий, если Вы скачали Убийца этажом ниже через торрент бесплатно! Внесите свою лепту в развитие PiratBit!
    Комментировать посты могут только пользователи прошедшие не сложную регистрацию
    Показать сообщения:    

    Убийца этажом ниже через торрент
    Скачать бесплатно Убийца этажом ниже
    Убийца этажом ниже скачать торрент
    Убийца этажом ниже смотреть онлайн
    Cкачать фильм Убийца этажом ниже бесплатно
    Убийца этажом ниже скачать торрент в хорошем качестве
    Убийца этажом ниже смотреть онлайн бесплатно в хорошем качестве


    Вы не можете начинать темы
    Вы не можете отвечать на сообщения
    Вы не можете редактировать свои сообщения
    Вы не можете удалять свои сообщения
    Вы не можете голосовать в опросах
    Вы не можете прикреплять файлы к сообщениям
    Вы можете скачивать файлы