Ссылка на приватное зеркало нашего сайта всего за 1$. Внимание количество ограничено!!!

2 сезон

iTunes

1 сезон

1

2 сезон

2 сезон

iTunes

1 сезон

RePack

30

Ultimate

ВАЖНО

ИГРА 18+

pack

RePack

MK11
pack

Забери бонус

RePack

jed

!!Акция!!

Alien_Rage

RePack

fifa19

RePack

Assassins Creed: Odyssey

RePack

NEED FOR SPEED™ PAYBACK

4 сезон

9 сезон

Бесстыжие 9 сезон

Все сериалы

все сериалы на PB.wtf

RePack

FAR CRY 5
  

Гостевая Книга / The Guest Book / Сезон: 2 / Серии: 1-10 из 10 (Грегори Томас Гарсиа, Самир Реэм, Майкл Энглер) [2018, комедия, WEBRip 720p] MVO [Good People] pb.wtf

Гостевая Книга через торрент pb.wtf

Размер: 7.81 GB | Добавлен: 1 год 8 мес. назад | Торрент скачан:32 раза
Скачать  

09-03-2019 05:41 Гостевая Книга Скачать торрент  

Гостевая Книга / The Guest Book Оригинальное название: The Guest Book
Русское название: Гостевая Книга
Год выпуска: 2018
Страна: США
Жанр: Комедия
Продолжительность: ~00:20:00 мин.
Перевод: Профессиональный (многоголосый закадровый) | Студия Good People
Субтитры: Да (английские)

Режиссёр: Грегори Томас Гарсиа, Самир Реэм, Майкл Энглер

rating

В ролях:

Карли Джибсон, Эдди Стиплз, Чарльз Робинсон, Лу Уилсон, Гаррет Диллахант, Кимико Гленн, Дэн Бирн, Алома Райт, Джимми Татро, Типпер Ньютон и другие

Описание:

Истории посетителей отеля в курортном городке Моунт Трэйс, а также его обслуживающего персонала и руководства. Большинство посетителей обладают нестандартными привычками и не желают мириться со скучными правилами заведения. Они приехали сюда качественно отдохнуть и постоянно ищут приключений…

Качество: WEBRip 720p
Формат: MKV
Видео кодек: AVC
Аудио кодек: AC3

Видео: AVC, 1280x720 (16:9), 23.976 fps, ~3454kbps, 0.156 bit/pixel

Аудио 1: Dolby AC3 48000Hz 6ch 640 Kbps Русский
Аудио 2: Dolby E-AC3 48000Hz 6ch 640 Kbps Оригинал


Реклама: Присутствует звуковая (два раза в начале и конце по 12 сек.)
General
Unique ID                   : 227658878074249362124410069714627196392 (0xAB45814A3A60A0F98E357E15A52FF5E8)
Complete name               : The.Guest.Book.S02E01.Finding.Reality.720p.AMZN.WEB-DL.DDP5.1.H.264-GoodPeople.mkv
Format                      : Matroska
Format version              : Version 4 / Version 2
File size                   : 719 MiB
Duration                    : 20mn 49s
Overall bit rate            : 4 823 Kbps
Encoded date                : UTC 2019-03-08 19:11:07
Writing application         : mkvmerge v17.0.0 ('Be Ur Friend') 64-bit
Writing library             : libebml v1.3.5 + libmatroska v1.4.8
DURATION                    : 00:20:49.952000000
NUMBER_OF_FRAMES            : 39061
NUMBER_OF_BYTES             : 99996160
_STATISTICS_WRITING_APP     : mkvmerge v17.0.0 ('Be Ur Friend') 64-bit
_STATISTICS_WRITING_DATE_UT : 2019-03-08 19:11:07
_STATISTICS_TAGS            : BPS DURATION NUMBER_OF_FRAMES NUMBER_OF_BYTES

Video
ID                          : 1
Format                      : AVC
Format/Info                 : Advanced Video Codec
Format profile              : High@L3.1
Format settings, CABAC      : Yes
Format settings, ReFrames   : 5 frames
Codec ID                    : V_MPEG4/ISO/AVC
Duration                    : 20mn 49s
Bit rate                    : 3 447 Kbps
Width                       : 1 280 pixels
Height                      : 720 pixels
Display aspect ratio        : 16:9
Frame rate mode             : Constant
Frame rate                  : 23.976 fps
Color space                 : YUV
Chroma subsampling          : 4:2:0
Bit depth                   : 8 bits
Scan type                   : Progressive
Bits/(Pixel*Frame)          : 0.156
Stream size                 : 514 MiB (71%)
Default                     : Yes
Forced                      : No
Color range                 : Limited
Color primaries             : BT.709
Transfer characteristics    : BT.709
Matrix coefficients         : BT.709

Audio #1
ID                          : 2
Format                      : AC-3
Format/Info                 : Audio Coding 3
Mode extension              : CM (complete main)
Format settings, Endianness : Big
Codec ID                    : A_AC3
Duration                    : 20mn 49s
Bit rate mode               : Constant
Bit rate                    : 640 Kbps
Channel(s)                  : 6 channels
Channel positions           : Front: L C R, Side: L R, LFE
Sampling rate               : 48.0 KHz
Compression mode            : Lossy
Stream size                 : 95.4 MiB (13%)
Language                    : Russian
Default                     : Yes
Forced                      : No

Audio #2
ID                          : 3
Format                      : E-AC-3
Format/Info                 : Audio Coding 3
Format settings, Endianness : Big
Codec ID                    : A_EAC3
Duration                    : 20mn 49s
Bit rate mode               : Constant
Bit rate                    : 640 Kbps
Channel(s)                  : 6 channels
Channel positions           : Front: L C R, Side: L R, LFE
Sampling rate               : 48.0 KHz
Compression mode            : Lossy
Stream size                 : 95.4 MiB (13%)
Language                    : English
Default                     : No
Forced                      : No

Text
ID                          : 4
Format                      : UTF-8
Codec ID                    : S_TEXT/UTF8
Codec ID/Info               : UTF-8 Plain Text
Title                       : SDH
Language                    : English
Default                     : No
Forced                      : No
pb.wtf



Скачать Гостевая Книга через торрент https://i109.fastpic.ru/big/2019/0309/f1/5c111a0397c862d9580fa7a3b9d1e2f1.png Скачать фильм Гостевая Книга через торрент бесплантно в хорошем качестве Описание: Истории посетителей отеля в курортном городке Моунт Трэйс, а также его обслуживающего персонала и руководства. Большинство ... 8 10 3
Торрент: Зарегистрирован [2019-03-09 05:41] · скачан: 32 раз
Статус: √ проверено
Размер: 7.81 GB
Как cкачать? Как скачать Гостевая Книга через торрент | qTorrent

% Раздел Тема Автор DL S | L
Зарубежные сериалы [ 3.92 GB ] Гостевая Книга / The Guest Book / Сезон: 2 / Серии: 1-10 из 10 [2018 WEBRip l 720p] [MVO] killermax2013 Скачать
1 | 0

28-11-2019 20:33  

Отключить всю рекламу на сайте

    Дорогой пользователь! Огромная просьба, поблагодарите релизера, оцените раздачу и оставьте свои комментарий, если Вы скачали Гостевая Книга через торрент бесплатно! Внесите свою лепту в развитие PiratBit!
    Комментировать посты могут только пользователи прошедшие не сложную регистрацию
    Показать сообщения:    

    Гостевая Книга через торрент
    Скачать бесплатно Гостевая Книга
    Гостевая Книга скачать торрент
    Гостевая Книга смотреть онлайн
    Cкачать фильм Гостевая Книга бесплатно
    Гостевая Книга скачать торрент в хорошем качестве
    Гостевая Книга смотреть онлайн бесплатно в хорошем качестве


    Вы не можете начинать темы
    Вы не можете отвечать на сообщения
    Вы не можете редактировать свои сообщения
    Вы не можете удалять свои сообщения
    Вы не можете голосовать в опросах
    Вы не можете прикреплять файлы к сообщениям
    Вы можете скачивать файлы