Ссылка на приватное зеркало всего за 1$. Внимание количество ограничено!!!

OK

1+1

iTunes

мы

OK

1

WEB-DLRip

Джокер

Пифагор

Ведьмак / The Witcher сериал

Лицензия

ПШазам

ОК

Оно 2

iTunes

30
pack

Вам бонус

ВАЖНО

!!Акция!!

Alien_RageХит недели

RePack

Resident Evil 21

ИГРА 18+

pack

RePack

jed

!!Акция!!

Alien_Rage

RePack

fifa19

RePack

Assassins Creed: Odyssey

RePack

NEED FOR SPEED™ PAYBACK

4 сезон

9 сезон

Бесстыжие 9 сезон

Все сериалы

все сериалы на PB.wtf

RePack

FAR CRY 5
  

Ускорение / Over Drive (Эйитиро Хасуми) [2018, спорт, драма, BDRip 720p] MVO ["Синема УС"] pb.wtf

Ускорение через торрент pb.wtf

Раздают: 1 [ 0 KB/s ]
Размер: 5.3 GB | Добавлен: 10 мес. назад | Торрент скачан:49 раз
Скачать  

09-03-2019 05:52 Ускорение Скачать торрент  

Ускорение / Over Drive Год выпуска: 2018
Страна: Япония
Жанр: спорт, драма
Продолжительность: 01:45:28
Перевод: Любительский (многоголосый) | "Синема УС"
Субтитры: отсутствуют

Режиссер: Эйитиро Хасуми

rating

В ролях:

Масахиро Хигасидэ, Макэню Арата, Аои Морикава, Такуми Китамура, Кэйта Матида, Котаро Ёсида, Марк Чиннери, Matt Rowles

Описание:

Старший брат Ацухиро - главный механик и инженер в гоночной команде. Младший Наодзуми - талантливый гонщик, известный безрассудным стилем вождения, что становится причиной конфликта между братьями. Однажды к ним придет новый менеджер, и команда попробует пробиться на чемпионат мира по ралли.

Качество: BDRip 720p
Формат: MKV

Видео: h.264, 6 743 kb/s, 1280x538
Аудио#1: Русский (AC3, 2 ch, 448 Кбит/с)
скриншот  скриншот  скриншот  

Общее
Уникальный идентификатор : 214313887187016107777614487504603362724 (0xA13B5A70C3B8740581DB5AB19A30B5A4)
Полное имя : D:\Over.Drive.2018.P.BDRip.72Op_KOSHARA.mkv
Формат : Matroska
Версия формата : Version 2
Размер файла : 5,30 Гбайт
Продолжительность : 1 ч. 45 м.
Режим общего битрейта : Переменный
Общий поток : 7193 Кбит/сек
Дата кодирования : UTC 2019-03-08 10:56:24
Программа кодирования : mkvmerge v8.3.0 ('Over the Horizon') 64bit
Библиотека кодирования : libebml v1.3.1 + libmatroska v1.4.2

Видео
Идентификатор : 1
Формат : AVC
Формат/Информация : Advanced Video Codec
Профиль формата : High@L4.1
Параметр CABAC формата : Да
Параметр RefFrames формата : 4 кадра
Идентификатор кодека : V_MPEG4/ISO/AVC
Продолжительность : 1 ч. 45 м.
Вид битрейта : Переменный
Битрейт : 6743 Кбит/сек
Максимальный битрейт : 7500 Кбит/сек
Ширина : 1280 пикселей
Высота : 538 пикселей
Соотношение сторон : 2,40:1
Режим частоты кадров : Постоянный
Частота кадров : 23,976 (24000/1001) кадра/сек
Стандарт вещания : Component
Цветовое пространство : YUV
Субдискретизация насыщенности : 4:2:0
Битовая глубина : 8 бит
Тип развёртки : Прогрессивная
Бит/(Пиксели*Кадры) : 0.400
Размер потока : 4,86 Гбайт (92%)
Default : Да
Forced : Нет
Цветовой диапазон : Limited
Основные цвета : BT.709
Характеристики трансфера : BT.709
Коэффициенты матрицы : BT.709

Аудио
Идентификатор : 2
Формат : AC-3
Формат/Информация : Audio Coding 3
Расширение режима : CM (complete main)
Параметр Endianness формата : Big
Идентификатор кодека : A_AC3
Продолжительность : 1 ч. 45 м.
Вид битрейта : Постоянный
Битрейт : 448 Кбит/сек
Каналы : 2 канала
Расположение каналов : Front: L R
Частота : 48,0 КГц
Частота кадров : 31,250 кадров/сек (1536 spf)
Метод сжатия : С потерями
Размер потока : 338 Мбайт (6%)
Default : Да
Forced : Нет

pb.wtf



Скачать Ускорение через торрент https://c.radikal.ru/c17/1903/71/2a2e0ddc59c2.jpg Скачать фильм Ускорение через торрент бесплантно в хорошем качестве Описание: Старший брат Ацухиро - главный механик и инженер в гоночной команде. Младший Наодзуми - талантливый гонщик, известный ... 10 10 2
Торрент: Зарегистрирован [2019-03-09 05:52] · скачан: 49 раз
Статус: # сомнительно
Размер: 5.3 GB
Как cкачать? Как скачать Ускорение через торрент | qTorrent

% Раздел Тема Автор DL S | L
Фильмы [HD 720p, 1080p] (Хороший звук DUB, MVO) [ 5.62 GB ] Максимальное ускорение / Maximum Overdrive [1986 BDRip 720p] [US Transfer] MVO + DVO + 2xAVO + 2xVO - KORSAR kisa1980 Скачать
3 | 0
Фильмы [HD 720p, 1080p] (Хороший звук DUB, MVO) [ 9.54 GB ] Максимальное ускорение / Maximum Overdrive [1986 BDRip 1080p by msltel] 2 x MVO AVO 2 x VO msltel Скачать
1 | 0
T Фильмы (мультфильмы) cо спонсором показа (Новинки AVI/MKV) [ 1.37 GB ] Ускорение / Over Drive [2018 HDRip] MVO ["Синема УС"] bober100 Скачать
1 | 0
Фильмы до 2000 г. [ 1.45 GB ] Максимальное ускорение / Maximum Overdrive [1986 BDRip] DVO koenig Скачать
1 | 0
Фильмы [HD 720p, 1080p] (Хороший звук DUB, MVO) [ 5.85 GB ] Максимальное ускорение / Maximum Overdrive [1986 BDRip 720p] DVO AVO -Lexx- Скачать
1 | 0

28-11-2019 20:33  

Отключить всю рекламу на сайте

    Дорогой пользователь! Огромная просьба, поблагодарите релизера, оцените раздачу и оставьте свои комментарий, если Вы скачали Ускорение через торрент бесплатно! Внесите свою лепту в развитие PiratBit!
    Комментировать посты могут только пользователи прошедшие не сложную регистрацию
    Показать сообщения:    

    Ускорение через торрент
    Скачать бесплатно Ускорение
    Ускорение скачать торрент
    Ускорение смотреть онлайн
    Cкачать фильм Ускорение бесплатно
    Ускорение скачать торрент в хорошем качестве
    Ускорение смотреть онлайн бесплатно в хорошем качестве


    Вы не можете начинать темы
    Вы не можете отвечать на сообщения
    Вы не можете редактировать свои сообщения
    Вы не можете удалять свои сообщения
    Вы не можете голосовать в опросах
    Вы не можете прикреплять файлы к сообщениям
    Вы можете скачивать файлы