MEGA SALE -50% FORZA HORIZON 4 ULTIMATE+ВСЕ DLC+ОНЛАЙН всего за 599р. 299 руб. (супер цена). Внимание количество ограничено!!!

iTunes

1+1

iTunes

мы

iTunes

1

iTunes

Чернобыль

1 сезон

Ральф против интернета

Лицензия

ПШазам

Лицензия

Игра престолов

Лицензия

30
pack

ВАЖНО

!!Акция!!

Alien_RageХит недели

RePack

Resident Evil 21

ИГРА 18+

pack

RePack

Metro:Exodus

!!Акция!!

Alien_Rage

RePack

fifa19

RePack

Assassins Creed: Odyssey

RePack

NEED FOR SPEED™ PAYBACK

3 сезон

9 сезон

Бесстыжие 9 сезон

Все сериалы

все сериалы на PB.wtf

RePack

FAR CRY 5
Ребята, катастрофически не хватает 7730р. для оплаты серверов за ИЮЛЬ (всвязи с блокировками трафик упал в 3 раза), 1-2р., выручайте.
  

Новый Comedy Club / Сезон: 15 / Серии: 1-14 из 14 [2019, ТВ-шоу, юмор, WEB-DL 720p] pb.wtf

Новый Comedy Club через торрент pb.wtf

Раздают: 2 [ 2 KB/s ] Качают: 1 [ 0 KB/s ]
Размер: 14.3 GB | Добавлен: 2 мес. 20 д. назад | Торрент скачан:53 раза
Скачать  

09-03-2019 08:42 Новый Comedy Club Скачать торрент  

Новый Comedy Club Год выпуска: 2019
Страна: Россия
Жанр: ТВ-шоу, юмор
Продолжительность: 00:47:00
Перевод: Не требуется
Субтитры: отсутствуют

В ролях:

Гарик Мартиросян, Павел Воля, Гарик Харламов, Тимур Батрутдинов, Александр Ревва, Дмитрий Сорокин, Зураб Матуа, Андрей Аверин, Марина Кравец, Антон Лирник, Андрей Молочный, Александр Незлобин, Виктор Васильев (III), Семён Слепаков

Описание:

Невероятная энергетика, уютная атмосфера, гениальный юмор – все это слагаемые успеха самого успешного, модного, смешного и талантливого шоу молодых юмористов, которые никогда не придерживаются никаких правил и границ.

Качество: WEB-DL 720p
Формат: MKV

Видео: MPEG-4 AVC, 2929 Кбит/с, 1280x720
Аудио: AC3, 2 ch, 192 Кбит/с
скриншот  скриншот  скриншот  скриншот  скриншот  

Общее
Уникальный идентификатор : 225135608192956965871060535027693317026 (0xA95F8A7AD344943C87690929687CEBA2)
Полное имя : D:\Comedy Club.S15.WEB-DL 720p. Files-x\Comedy Club.S15E01.WEB-DL 720p. Files-x.mkv
Формат : Matroska
Версия формата : Version 2
Размер файла : 1,09 Гбайт
Продолжительность : 48 м. 47 с.
Общий поток : 3184 Кбит/сек
Дата кодирования : UTC 2019-02-22 22:56:43
Программа кодирования : mkvmerge v7.8.0 ('River Man') 32bit built on Apr 3 2015 12:11:22
Библиотека кодирования : libebml v1.3.1 + libmatroska v1.4.2

Видео
Идентификатор : 1
Формат : AVC
Формат/Информация : Advanced Video Codec
Профиль формата : High@L3.1
Параметр CABAC формата : Да
Параметр RefFrames формата : 1 кадр
Параметр GOP формата : M=1, N=12
Идентификатор кодека : V_MPEG4/ISO/AVC
Продолжительность : 48 м. 47 с.
Битрейт : 2929 Кбит/сек
Ширина : 1280 пикселей
Высота : 720 пикселей
Соотношение сторон : 16:9
Режим частоты кадров : Постоянный
Частота кадров : 25,000 кадров/сек
Стандарт вещания : Component
Цветовое пространство : YUV
Субдискретизация насыщенности : 4:2:0
Битовая глубина : 8 бит
Тип развёртки : Прогрессивная
Бит/(Пиксели*Кадры) : 0.127
Размер потока : 1022 Мбайт (92%)
Default : Да
Forced : Нет
Цветовой диапазон : Limited

Аудио
Идентификатор : 2
Формат : AC-3
Формат/Информация : Audio Coding 3
Расширение режима : CM (complete main)
Параметр Endianness формата : Big
Идентификатор кодека : A_AC3
Продолжительность : 48 м. 47 с.
Вид битрейта : Постоянный
Битрейт : 192 Кбит/сек
Каналы : 2 канала
Расположение каналов : Front: L R
Частота : 44,1 КГц
Частота кадров : 28,711 кадров/сек (1536 spf)
Метод сжатия : С потерями
Размер потока : 67,0 Мбайт (6%)
Default : Да
Forced : Нет

Внимание! Раздача ведётся путём добавления новых серий; при каждом добавлении создаётся новый торрент. Чтобы начать докачку новой серии, пользователям необходимо сделать следующее:
(1) остановить скачивание,
(2) удалить старый торрент у себя из клиента (старые серии удалять не надо),
(3) скачать новый торрент и запустить его у себя в клиенте вместо старого, при этом указать клиенту путь в старую папку куда и должно происходить скачивание новых серий.
Ваш клиент при этом должен произвести хеширование (проверку) старой папки (если не производит сам - помогите ему сделать это), и будет докачивать только те серии которых у вас ещё нет. Старые серии при этом не удаляются, а продолжают раздаваться!
Eсли вы уже удалили старые серии, то предотвратить повторную закачку старых серий можно, отжав галочку в соответствующих местах при запуске нового торрента. По возможности, желательно не удалять старые серии как можно дольше чтобы релизёр не столько продолжал раздавать старые серии, а смог сконцентрироваться на новых.
pb.wtf



Скачать Новый Comedy Club через торрент http://pic1.kartinco.top/images/12/dhjle.jpg Скачать фильм Новый Comedy Club через торрент бесплантно в хорошем качестве Описание: Невероятная энергетика, уютная атмосфера, гениальный юмор – все это слагаемые успеха самого успешного, модного, смешного и ... 9.6 10 23
Торрент: Зарегистрирован [2019-06-01 07:06] · скачан: 53 раз
Статус: √ проверено
Размер: 14.3 GB
Как cкачать? Как скачать Новый Comedy Club через торрент | qTorrent

% Раздел Тема Автор DL S | L
Comedy Club - Комеди Клаб new [ 8.13 GB ] Новый Comedy Club / Сезон: 15 / Серии: 1-14 из 14 [2019 ТВ-шоу юмор SATRip] bober100 Скачать
5 | 1


>> Регистрируемся здесь <<






Отзывы и комментарии о схеме читаем и пишем здесь: ---> Отзывы и комментарии о схеме

Новые благодарочки в телеграм довольных пользователей:
скриншот   скриншот   скриншот   скриншот   скриншот
    Дорогой пользователь! Огромная просьба, поблагодарите релизера, оцените раздачу и оставьте свои комментарий, если Вы скачали Новый Comedy Club через торрент бесплатно! Внесите свою лепту в развитие PiratBit!
    Комментировать посты могут только пользователи прошедшие не сложную регистрацию
    Показать сообщения:    

    Новый Comedy Club через торрент
    Скачать бесплатно Новый Comedy Club
    Новый Comedy Club скачать торрент
    Новый Comedy Club смотреть онлайн
    Cкачать фильм Новый Comedy Club бесплатно
    Новый Comedy Club скачать торрент в хорошем качестве
    Новый Comedy Club смотреть онлайн бесплатно в хорошем качестве


    Вы не можете начинать темы
    Вы не можете отвечать на сообщения
    Вы не можете редактировать свои сообщения
    Вы не можете удалять свои сообщения
    Вы не можете голосовать в опросах
    Вы не можете прикреплять файлы к сообщениям
    Вы можете скачивать файлы