Ссылка на приватное зеркало нашего сайта всего за 1$. Внимание количество ограничено!!!

2 сезон

iTunes

1 сезон

1

2 сезон

2 сезон

iTunes

1 сезон

RePack

30

Новинка

ВАЖНО

ИГРА 18+

pack

RePack

MK11
pack

Забери бонус

RePack

jed

!!Акция!!

Alien_Rage

RePack

fifa19

RePack

Assassins Creed: Odyssey

RePack

NEED FOR SPEED™ PAYBACK

4 сезон

9 сезон

Бесстыжие 9 сезон

Все сериалы

все сериалы на PB.wtf

RePack

FAR CRY 5
  

Видимая тьма / Darkness Visible (Нил Бисвас) [2019, Триллер, ужасы, WEB-DL 1080p] MVO [HDRezka Studio] pb.wtf

Видимая тьма через торрент pb.wtf

Размер: 5.07 GB | Добавлен: 1 год 8 мес. назад | Торрент скачан:139 раз
Скачать  

10-03-2019 07:05 Видимая тьма Скачать торрент  

Видимая тьма / Darkness Visible Год выпуска: 2019
Страна: Великобритания, Индия, США
Жанр: Триллер, ужасы
Продолжительность: 01:46:06
Перевод: Профессиональный (многоголосый) | HDRezka Studio
Субтитры: английские

Режиссер: Нил Бисвас

rating

В ролях:

Саяни Гупта, Саломе Гуннарсдоттир, Нил Бхупалам, Сима Бисвас, Джаз Деол, Каушик Митра, Джанардан Гош, Санджай Пол

Описание:

Прожив большую часть жизни в Лондоне, Ронни вынужден вернуться в Индию, когда узнает, что его мать пропала без вести, а спустя некоторое время объявилась в госпитале Калькутты. Прежде чем главный герой успевает разобраться в причине таинственного исчезновении пожилой женщины, она становится жертвой кровавого ритуального убийства. Когда Ронни удается связать смерть матери с серией похожих преступлений, произошедших в прошлом, он обнаруживает, что все улики ведут к страшной ведьме, заточенной в психиатрической лечебнице Калькутты.

Качество: WEB-DL 1080p
Формат: MKV

Видео: 1920x800 (2.40:1), 24,000 fps, x264 ~6 006 kbps avg, 0.163 bit/pixel
Аудио#1: 48 kHz, AC3 Dolby Digital, 2 (L,R) ch, ~192.00 kbps avg | RUS (HDRezka Studio)
Аудио#2: 48 kHz, E-AC3 Dolby Digital Plus, 3/2 (L,C,R,l,r) + LFE ch, ~640.00 kbps avg | ENG
скриншот  скриншот  скриншот  скриншот  

Общее
Уникальный идентификатор : 114779767145500584696777655701082536900 (0x5659C7702EED0DEFF3327D91FD74FBC4)
Полное имя : F:OlLanDGroupDarkness.Visible.2019.WEB-DL(1080p).OlLanDGroup.mkv
Формат : Matroska
Версия формата : Version 4 / Version 2
Размер файла : 5,07 Гбайт
Продолжительность : 1 ч. 46 м.
Общий поток : 6840 Кбит/сек
Название фильма : Darkness.Visible.2018 #TorpedoUK#
Дата кодирования : UTC 2019-03-10 00:34:12
Программа кодирования : mkvmerge v29.0.0 ('Like It Or Not') 64-bit
Библиотека кодирования : libebml v1.3.6 + libmatroska v1.4.9

Видео
Идентификатор : 1
Формат : AVC
Формат/Информация : Advanced Video Codec
Профиль формата : High@L4
Параметр CABAC формата : Да
Параметр ReFrames формата : 4 кадра
Идентификатор кодека : V_MPEG4/ISO/AVC
Продолжительность : 1 ч. 46 м.
Вид битрейта : Постоянный
Битрейт : 6006 Кбит/сек
Номинальный битрейт : 10000 Кбит/сек
Ширина : 1920 пикселей
Высота : 800 пикселей
Соотношение сторон : 2,40:1
Режим частоты кадров : Постоянный
Частота кадров : 24,000 кадра/сек
Цветовое пространство : YUV
Субдискретизация насыщенности : 4:2:0
Битовая глубина : 8 бит
Тип развёртки : Прогрессивная
Бит/(Пиксели*Кадры) : 0.163
Размер потока : 4,45 Гбайт (88%)
Default : Да
Forced : Нет
Цветовой диапазон : Limited
Основные цвета : BT.709
Характеристики трансфера : BT.709
Коэффициенты матрицы : BT.709

Аудио #1
Идентификатор : 2
Формат : AC-3
Формат/Информация : Audio Coding 3
Расширение режима : CM (complete main)
Параметр Endianness формата : Big
Идентификатор кодека : A_AC3
Продолжительность : 1 ч. 46 м.
Вид битрейта : Постоянный
Битрейт : 192 Кбит/сек
Каналы : 2 канала
Расположение каналов : Front: L R
Частота : 48,0 КГц
Частота кадров : 31,250 кадров/сек (1536 spf)
Битовая глубина : 16 бит
Метод сжатия : С потерями
Размер потока : 146 Мбайт (3%)
Заголовок : MVO [HDRezka Studio]
Язык : Russian
Default : Да
Forced : Нет

Аудио #2
Идентификатор : 3
Формат : E-AC-3
Формат/Информация : Enhanced Audio Coding 3
Параметр Endianness формата : Big
Идентификатор кодека : A_EAC3
Продолжительность : 1 ч. 46 м.
Вид битрейта : Постоянный
Битрейт : 640 Кбит/сек
Каналы : 6 каналов
Расположение каналов : Front: L C R, Side: L R, LFE
Частота : 48,0 КГц
Частота кадров : 187,500 кадров/сек (256 spf)
Метод сжатия : С потерями
Размер потока : 486 Мбайт (9%)
Заголовок : [Original]
Язык : English
Default : Нет
Forced : Нет

Текст
Идентификатор : 4
Формат : UTF-8
Идентификатор кодека : S_TEXT/UTF8
Идентификатор кодека/Информация : UTF-8 Plain Text
Продолжительность : 1 ч. 40 м.
Битрейт : 35 бит/сек
Count of elements : 1042
Размер потока : 25,9 Кбайт (0%)
Заголовок : SDH
Язык : English
Default : Нет
Forced : Нет

pb.wtf



Скачать Видимая тьма через торрент https://i109.fastpic.ru/big/2019/0310/43/32d14e2a56b84c05b10342185df8b743.jpg Скачать фильм Видимая тьма через торрент бесплантно в хорошем качестве Описание: Прожив большую часть жизни в Лондоне, Ронни вынужден вернуться в Индию, когда узнает, что его мать пропала без вести, а спустя ... 10 10 3
Торрент: Зарегистрирован [2019-03-10 07:05] · скачан: 139 раз
Статус: T временная
Размер: 5.07 GB
Как cкачать? Как скачать Видимая тьма через торрент | qTorrent

28-11-2019 20:33  

Отключить всю рекламу на сайте

10-03-2019 08:56 Видимая тьма Скачать торрент  

Блин сначало подумал что на втором скрине женская ..... ))))pb.wtf



10-03-2019 12:03 Видимая тьма Скачать торрент  

Прочитал описание, весь сюжет понятен, зачем смотреть?pb.wtf



10-03-2019 14:06 Видимая тьма Скачать торрент  

Bibendi писал(а):

Блин сначало подумал что на втором скрине женская ..... ))))

ага, целка вылетаяpb.wtf



10-03-2019 23:22 Видимая тьма Скачать торрент  

Фильм хорош,кстати.pb.wtf



    Дорогой пользователь! Огромная просьба, поблагодарите релизера, оцените раздачу и оставьте свои комментарий, если Вы скачали Видимая тьма через торрент бесплатно! Внесите свою лепту в развитие PiratBit!
    Комментировать посты могут только пользователи прошедшие не сложную регистрацию
    Показать сообщения:    

    Видимая тьма через торрент
    Скачать бесплатно Видимая тьма
    Видимая тьма скачать торрент
    Видимая тьма смотреть онлайн
    Cкачать фильм Видимая тьма бесплатно
    Видимая тьма скачать торрент в хорошем качестве
    Видимая тьма смотреть онлайн бесплатно в хорошем качестве


    Вы не можете начинать темы
    Вы не можете отвечать на сообщения
    Вы не можете редактировать свои сообщения
    Вы не можете удалять свои сообщения
    Вы не можете голосовать в опросах
    Вы не можете прикреплять файлы к сообщениям
    Вы можете скачивать файлы