новый адрес
Ссылка на приватное зеркало всего за 1$. Внимание количество ограничено!!!

iTunes

1+1

iTunes

мы

WEB-DL

1

iTunes

Чернобыль

iTunes

Ральф против интернета

Лицензия

ПШазам

Лицензия

Оно 2

Лицензия

30
pack

Вам бонус

ВАЖНО

!!Акция!!

Alien_RageХит недели

RePack

Resident Evil 21

ИГРА 18+

pack

RePack

jed

!!Акция!!

Alien_Rage

RePack

fifa19

RePack

Assassins Creed: Odyssey

RePack

NEED FOR SPEED™ PAYBACK

3 сезон

9 сезон

Бесстыжие 9 сезон

Все сериалы

все сериалы на PB.wtf

RePack

FAR CRY 5
Ребята, катастрофически не хватает 1900р. для оплаты серверов за Октябрь (всвязи с блокировками трафик упал в 3 раза), 1-2р., выручайте.
  

Франкенвини в 3Д / Frankenweenie 3D (Тим Бёртон / Tim Burton) [2012, мультфильм, ужасы, фантастика, комедия, семейный, BDRip, 1080p] OverUnder / Вертикальная стереопара [Дубляж Лицензия] pb.wtf

Франкенвини в 3Д через торрент pb.wtf

Размер: 10.2 GB | Добавлен: 8 мес. назад | Торрент скачан:6 раз
Скачать  

10-03-2019 07:14 Франкенвини в 3Д Скачать торрент  

Франкенвини / Frankenweenie

Год выпуска: 2012
Страна: США (Walt Disney Pictures)
Жанр: мультфильм, ужасы, фантастика, комедия, семейный
Продолжительность: 01:26:56

Перевод: Профессиональный дублированный(лицензия)
Русские субтитры: нет
Режиссер: Тим Бёртон / Tim Burton

В ролях: Чарли Тахэн, Кэтрин О’Хара, Мартин Шорт, Мартин Ландау, Аттикус Шаффер, Вайнона Райдер, Роберт Капрон, Джеймс Хироюки Лиао, Кончата Феррелл, Том Кенни

Описание: Обожаемый мальчиком Виктором пес Спарки погибает в результате несчастного случая. Мальчик, не желая мириться с потерей друга, призывает науку на помощь и…возвращает питомца к жизни! Казалось бы, все не так уж плохо, но когда Спарки сбегает от Виктора, его друзья, родители, учителя и жители городка узнают, что возвращение к жизни домашнего питомца может повлечь за собой неожиданные и даже ужасные последствия!

Сэмпл: http://sendfile.su/1480780

Качество: BDrip, 1080p
Контейнер: MKV
Формат 3D: OverUnder / Вертикальная стереопара
Порядок ракурсов: левый ракурс первый
Видео кодек: x264
Аудио кодек: AC3
Видео: AVC / High@L5.0 / 23,976 fps / 1920х2160 / 15,2 Мбит/сек
Аудио: Русский / AC3 / 48 KHz / 5.1 ch / 640 Кбит/сек(лицензия)
Аудио 2: Английский / AC3 / 48 KHz / 5.1 ch / 640 Кбит/сек

ВНИМАНИЕ ! На встроенных ТВ-плеерах работать не будет!!!

ТВ Samsung в названии которого есть надпись Ultra HD , и LG Ultra HD 800 серии, LG C6P, Xiaomi Mi TV 2 воспроизводят полные стереопары встроенными плеерами
Железные плееры на которых воспроизводятся полные стереопары:Popcorn C-200 , Dune HD Smart D1 , Dune HD DUO , Dune HD Smart H1 , Dune HD Smart B1 , Dune HD Max , Dune HD TV-303D, Dune HD TV-102, Dune HD Base 3D, Philips HMP7001, Aura HD, MECOOL BB2
Чтобы изображение было на весь экран в плеере выставляем, если рип 1920х1600 - то выставляем 2.35:1 , если 1920х2160 - то выставляем 16:9
Общее
Уникальный идентификатор : 207942892662639562858440837389300746525 (0x9C705828A45AAD759D6EB95EA863491D)
Полное имя : F:\закачки\Frankenweenie.Rip by SeRoGa00.mkv
Формат : Matroska
Версия формата : Version 2
Размер файла : 10,2 Гбайт
Продолжительность : 1 ч. 26 м.
Общий поток : 16,8 Мбит/сек
Дата кодирования : UTC 2019-03-10 05:59:04
Программа кодирования : mkvmerge v3.4.0 ('Rapunzel') сборка от May 15 2010 09:38:20
Библиотека кодирования : libebml v0.8.0 + libmatroska v0.9.0

Видео
Идентификатор : 1
Формат : AVC
Формат/Информация : Advanced Video Codec
Профиль формата : High@L5.0
Параметр CABAC формата : Да
Параметр ReFrames формата : 4 кадра
Идентификатор кодека : V_MPEG4/ISO/AVC
Продолжительность : 1 ч. 26 м.
Битрейт : 15,2 Мбит/сек
Ширина : 1920 пикселей
Высота : 2160 пикселей
Соотношение сторон : 0,889
Частота кадров : 23,976 кадра/сек
Цветовое пространство : YUV
Субдискретизация насыщенности : 4:2:0
Битовая глубина : 8 бит
Тип развёртки : Прогрессивная
Бит/(Пиксели*Кадры) : 0.153
Размер потока : 9,22 Гбайт (90%)
Заголовок : Rip by SeRoGa00
Библиотека кодирования : x264 core 155 r2901 7d0ff22
Настройки программы : cabac=1 / ref=4 / deblock=1:-3:-3 / analyse=0x3:0x113 / me=umh / subme=10 / psy=1 / psy_rd=1.00:0.15 / mixed_ref=1 / me_range=24 / chroma_me=1 / trellis=2 / 8x8dct=1 / cqm=0 / deadzone=21,11 / fast_pskip=1 / chroma_qp_offset=-3 / threads=18 / lookahead_threads=6 / sliced_threads=0 / nr=0 / decimate=0 / interlaced=0 / bluray_compat=0 / constrained_intra=0 / bframes=10 / b_pyramid=2 / b_adapt=2 / b_bias=0 / direct=3 / weightb=1 / open_gop=0 / weightp=2 / keyint=250 / keyint_min=23 / scenecut=40 / intra_refresh=0 / rc_lookahead=60 / rc=crf / mbtree=1 / crf=16.5 / qcomp=0.60 / qpmin=10 / qpmax=69 / qpstep=4 / vbv_maxrate=40000 / vbv_bufsize=40000 / crf_max=0.0 / nal_hrd=none / filler=0 / ip_ratio=1.40 / aq=1:1.00
Язык : English
Default : Нет
Forced : Нет

Аудио #1
Идентификатор : 2
Формат : AC-3
Формат/Информация : Audio Coding 3
Расширение режима : CM (complete main)
Параметр Endianness формата : Big
Идентификатор кодека : A_AC3
Продолжительность : 1 ч. 26 м.
Вид битрейта : Постоянный
Битрейт : 640 Кбит/сек
Каналы : 6 каналов
Расположение каналов : Front: L C R, Side: L R, LFE
Частота : 48,0 КГц
Битовая глубина : 16 бит
Метод сжатия : С потерями
Размер потока : 398 Мбайт (4%)
Язык : Russian
Default : Да
Forced : Нет

Аудио #2
Идентификатор : 3
Формат : AC-3
Формат/Информация : Audio Coding 3
Расширение режима : CM (complete main)
Параметр Endianness формата : Big
Идентификатор кодека : A_AC3
Продолжительность : 1 ч. 26 м.
Вид битрейта : Постоянный
Битрейт : 640 Кбит/сек
Каналы : 6 каналов
Расположение каналов : Front: L C R, Side: L R, LFE
Частота : 48,0 КГц
Битовая глубина : 16 бит
Метод сжатия : С потерями
Размер потока : 398 Мбайт (4%)
Язык : English
Default : Нет
Forced : Нет

Меню
00:00:00.000 : en:00:00:00.000
00:05:25.324 : en:00:05:25.324
00:11:17.217 : en:00:11:17.217
00:15:32.014 : en:00:15:32.014
00:19:28.291 : en:00:19:28.291
00:26:09.317 : en:00:26:09.317
00:31:59.791 : en:00:31:59.791
00:35:52.525 : en:00:35:52.525
00:41:12.177 : en:00:41:12.177
00:46:44.384 : en:00:46:44.384
00:50:13.342 : en:00:50:13.342
00:55:24.862 : en:00:55:24.862
01:03:47.197 : en:01:03:47.197
01:09:25.994 : en:01:09:25.994
01:16:44.932 : en:01:16:44.932
01:20:08.802 : en:01:20:08.802
скриншот  

скриншот  

скриншот  

скриншот  

скриншот  

скриншот  
pb.wtf



Скачать Франкенвини в 3Д через торрент https://a.radikal.ru/a26/1903/a9/27d928bbaf5b.png Скачать фильм Франкенвини в 3Д через торрент бесплантно в хорошем качестве Описание: Обожаемый мальчиком Виктором пес Спарки погибает в результате несчастного случая. Мальчик, не желая мириться с потерей друга, ... 5 10 1
Info! Серебряная раздача, засчитывается только 50% скачанного.
Торрент: Зарегистрирован [2019-03-10 07:14] · скачан: 6 раз
Статус: √ проверено
Размер: 10.2 GB
Как cкачать? Как скачать Франкенвини в 3Д через торрент | qTorrent

28-11-2019 20:33  

Отключить всю рекламу на сайте

    Дорогой пользователь! Огромная просьба, поблагодарите релизера, оцените раздачу и оставьте свои комментарий, если Вы скачали Франкенвини в 3Д через торрент бесплатно! Внесите свою лепту в развитие PiratBit!
    Комментировать посты могут только пользователи прошедшие не сложную регистрацию
    Показать сообщения:    

    Франкенвини в 3Д через торрент
    Скачать бесплатно Франкенвини в 3Д
    Франкенвини в 3Д скачать торрент
    Франкенвини в 3Д смотреть онлайн
    Cкачать фильм Франкенвини в 3Д бесплатно
    Франкенвини в 3Д скачать торрент в хорошем качестве
    Франкенвини в 3Д смотреть онлайн бесплатно в хорошем качестве


    Вы не можете начинать темы
    Вы не можете отвечать на сообщения
    Вы не можете редактировать свои сообщения
    Вы не можете удалять свои сообщения
    Вы не можете голосовать в опросах
    Вы не можете прикреплять файлы к сообщениям
    Вы можете скачивать файлы