Ссылка на приватное зеркало нашего сайта всего за 1$. Внимание количество ограничено!!!

2 сезон

iTunes

1 сезон

1

2 сезон

2 сезон

iTunes

1 сезон

RePack

30

Ultimate

ВАЖНО

ИГРА 18+

pack

RePack

MK11
pack

Забери бонус

RePack

jed

!!Акция!!

Alien_Rage

RePack

fifa19

RePack

Assassins Creed: Odyssey

RePack

NEED FOR SPEED™ PAYBACK

4 сезон

9 сезон

Бесстыжие 9 сезон

Все сериалы

все сериалы на PB.wtf

RePack

FAR CRY 5
  

Порядок / Тайный орден / The Order / Сезон: 1 / Серии: 1-10 из 10 (Матиас Хендл, Лесли Хоуп, Кристин Леман) [2019, Ужасы, фэнтези, драма, WEB-DL 720p] DUB [Невафильм] pb.wtf

Порядок через торрент pb.wtf

Размер: 10.02 GB | Добавлен: 1 год 8 мес. назад | Торрент скачан:158 раз
Скачать  

10-03-2019 07:15 Порядок Скачать торрент  

Порядок | Тайный орден | The Order Год выпуска: 2019
Страна: США
Жанр: Ужасы, фэнтези, драма
Продолжительность: ~ 00:50:00
Перевод: Профессиональный (дублированный) | Невафильм
Субтитры: Русские (Forced, Full), английские и другие

Режиссёр: Матиас Хендл, Лесли Хоуп, Кристин Леман

В ролях: Джейк Мэнли, Сара Грэй, Мэтт Фрюэр, Сэм Трэммелл, Макс Мартини, Адам ДиМарко, Лоуриза Тронку, Томас Эльмс, Аарон Хейл, Девери Джейкобс

Описание:

Первокурсник колледжа Джек Мортон узнаёт о существовании тайной многовековой организации и становится значимой фигурой в войне оборотней и тёмных магов.




Качество: WEB-DL 720p
Формат: MKV

Видео: 1280x720 at 23.976 fps, MPEG-4 AVC, ~2670 kbps avg
Аудио Rus: 48 kHz, AC3, 3/2 (L,C,R,l,r) + LFE ch, 384 Кбит/сек | Невафильм
Аудио Eng: 48 kHz, AC3, 3/2 (L,C,R,l,r) + LFE ch, 384 Кбит/сек
скриншот  скриншот  скриншот  скриншот  

Общее
Уникальный идентификатор : 191829663886102065086004323103251660345 (0x90510CA4D2AB51468A26FAE581DC7E39)
Полное имя : D:\Тайный орден. Сериал. 2019. Dub (WEB-DL 720p)\The.Order.s01e01. Адская неделька. Часть 1.mkv
Формат : Matroska
Версия формата : Version 2
Размер файла : 1,25 Гбайт
Продолжительность : 51 м. 3 с.
Режим общего битрейта : Переменный
Общий поток : 3496 Кбит/сек
Название фильма : Hell Week, Part One
Дата кодирования : UTC 2019-03-07 19:51:38
Программа кодирования : mkvmerge v6.9.1 ('Blue Panther') 32bit built on Apr 18 2014 18:15:44
Библиотека кодирования : libebml v1.3.0 + libmatroska v1.4.1
Обложка : Yes
Attachments : cover_the_order.jpg

Видео
Идентификатор : 1
Формат : AVC
Формат/Информация : Advanced Video Codec
Профиль формата : Main@L3.1
Параметр CABAC формата : Да
Параметр RefFrames формата : 3 кадра
Идентификатор кодека : V_MPEG4/ISO/AVC
Продолжительность : 51 м. 3 с.
Вид битрейта : Переменный
Битрейт : 2659 Кбит/сек
Номинальный битрейт : 2870 Кбит/сек
Максимальный битрейт : 4305 Кбит/сек
Ширина : 1280 пикселей
Высота : 720 пикселей
Соотношение сторон : 16:9
Режим частоты кадров : Постоянный
Частота кадров : 23,976 (24000/1001) кадра/сек
Цветовое пространство : YUV
Субдискретизация насыщенности : 4:2:0
Битовая глубина : 8 бит
Тип развёртки : Прогрессивная
Бит/(Пиксели*Кадры) : 0.120
Размер потока : 971 Мбайт (76%)
Библиотека кодирования : x264 core 148 r2715 7e75228
Настройки программы : cabac=1 / ref=3 / deblock=1:0:0 / analyse=0x1:0x111 / me=umh / subme=10 / psy=1 / psy_rd=1.00:0.00 / mixed_ref=1 / me_range=24 / chroma_me=1 / trellis=2 / 8x8dct=0 / cqm=0 / deadzone=21,11 / fast_pskip=1 / chroma_qp_offset=-2 / threads=8 / lookahead_threads=1 / sliced_threads=0 / nr=0 / decimate=1 / interlaced=0 / bluray_compat=0 / stitchable=1 / constrained_intra=0 / bframes=2 / b_pyramid=0 / b_adapt=2 / b_bias=0 / direct=3 / weightb=1 / open_gop=0 / weightp=2 / keyint=48 / keyint_min=25 / scenecut=0 / intra_refresh=0 / rc_lookahead=48 / rc=2pass / mbtree=1 / bitrate=2870 / ratetol=1.0 / qcomp=0.50 / qpmin=6 / qpmax=51 / qpstep=4 / cplxblur=20.0 / qblur=0.5 / vbv_maxrate=4305 / vbv_bufsize=5740 / nal_hrd=vbr / filler=0 / ip_ratio=1.40 / aq=1:1.00
Язык : English
Default : Да
Forced : Нет

Аудио #1
Идентификатор : 2
Формат : AC-3
Формат/Информация : Audio Coding 3
Расширение режима : CM (complete main)
Параметр Endianness формата : Big
Идентификатор кодека : A_AC3
Продолжительность : 51 м. 3 с.
Вид битрейта : Постоянный
Битрейт : 384 Кбит/сек
Каналы : 6 каналов
Расположение каналов : Front: L C R, Side: L R, LFE
Частота : 48,0 КГц
Частота кадров : 31,250 кадров/сек (1536 spf)
Метод сжатия : С потерями
Размер потока : 140 Мбайт (11%)
Заголовок : Dub
Язык : Russian
Default : Да
Forced : Нет

Аудио #2
Идентификатор : 3
Формат : AC-3
Формат/Информация : Audio Coding 3
Расширение режима : CM (complete main)
Параметр Endianness формата : Big
Идентификатор кодека : A_AC3
Продолжительность : 51 м. 3 с.
Вид битрейта : Постоянный
Битрейт : 384 Кбит/сек
Каналы : 6 каналов
Расположение каналов : Front: L C R, Side: L R, LFE
Частота : 48,0 КГц
Частота кадров : 31,250 кадров/сек (1536 spf)
Метод сжатия : С потерями
Размер потока : 140 Мбайт (11%)
Язык : English
Default : Нет
Forced : Нет

Текст #1
Идентификатор : 4
Формат : UTF-8
Идентификатор кодека : S_TEXT/UTF8
Идентификатор кодека/Информация : UTF-8 Plain Text
Язык : Russian
Default : Нет
Forced : Нет

Текст #2
Идентификатор : 5
Формат : UTF-8
Идентификатор кодека : S_TEXT/UTF8
Идентификатор кодека/Информация : UTF-8 Plain Text
Язык : English
Default : Нет
Forced : Нет

Текст #3
Идентификатор : 6
Формат : UTF-8
Идентификатор кодека : S_TEXT/UTF8
Идентификатор кодека/Информация : UTF-8 Plain Text
Язык : German
Default : Нет
Forced : Нет

Текст #4
Идентификатор : 7
Формат : UTF-8
Идентификатор кодека : S_TEXT/UTF8
Идентификатор кодека/Информация : UTF-8 Plain Text
Язык : French
Default : Нет
Forced : Нет

Текст #5
Идентификатор : 8
Формат : UTF-8
Идентификатор кодека : S_TEXT/UTF8
Идентификатор кодека/Информация : UTF-8 Plain Text
Язык : Italian
Default : Нет
Forced : Нет

Текст #6
Идентификатор : 9
Формат : UTF-8
Идентификатор кодека : S_TEXT/UTF8
Идентификатор кодека/Информация : UTF-8 Plain Text
Язык : Spanish
Default : Нет
Forced : Нет

Текст #7
Идентификатор : 10
Формат : UTF-8
Идентификатор кодека : S_TEXT/UTF8
Идентификатор кодека/Информация : UTF-8 Plain Text
Язык : Dutch
Default : Нет
Forced : Нет

Текст #8
Идентификатор : 11
Формат : UTF-8
Идентификатор кодека : S_TEXT/UTF8
Идентификатор кодека/Информация : UTF-8 Plain Text
Язык : Portuguese
Default : Нет
Forced : Нет

pb.wtf



Скачать Порядок через торрент https://i110.fastpic.ru/big/2019/0309/af/be60387261888000ca5d635ec84f7faf.jpg Скачать фильм Порядок через торрент бесплантно в хорошем качестве Описание: Первокурсник колледжа Джек Мортон узнаёт о существовании тайной многовековой организации и становится значимой фигурой в войне ... 9.7 10 3
Торрент: Зарегистрирован [2019-03-10 07:15] · скачан: 158 раз
Статус: √ проверено
Размер: 10.02 GB
Как cкачать? Как скачать Порядок через торрент | qTorrent

% Раздел Тема Автор DL S | L
Зарубежные сериалы [ 16.1 GB ] Порядок / Тайный орден / The Order / Сезон: 2 / Серии: 1-10 из 10 [2020 WEB-DL 1080p] MVO [Jaskier] bober100 Скачать
1 | 0
Зарубежные сериалы [ 9.05 GB ] Порядок / Тайный орден / The Order / Сезон: 2 / Серии: 1-10 из 10 [2020 WEB-DL 720p] MVO [Jaskier] bober100 Скачать
1 | 0
Зарубежные сериалы [ 5.6 GB ] Порядок / Тайный орден / The Order / Сезон: 2 / Серии: 1-10 из 10 [2020 WEB-DLRip] MVO [Jaskier] bober100 Скачать
1 | 0
Зарубежные сериалы [ 6.7 GB ] Порядок / Тайный орден / The Order / Сезон: 2 / Серии: 1-10 из 10 [2020 WEB-DLRip] DUB [Невафильм / Netflix] bober100 Скачать
1 | 0
Зарубежные сериалы [ 18.25 GB ] Порядок / Тайный орден / The Order / Сезон: 2 / Серии: 1-10 из 10 [2020 WEB-DL 1080p] DUB [Невафильм / Netflix] bober100 Скачать
2 | 0
Зарубежные сериалы [ 16.84 GB ] Порядок / Тайный орден / The Order / Сезон: 1 / Серии: 1-10 из 10 [2019 WEB-DL 1080p] DUB [Невафильм] bober100 Скачать
1 | 0
Зарубежные сериалы [ 5.38 GB ] Тайный орден / Порядок / The Order / Сезон: 1 / Серии: 1-10 из 10 [2019 WEB-DLRip] DUB [Невафильм] bober100 Скачать
2 | 0

28-11-2019 20:33  

Отключить всю рекламу на сайте

24-07-2020 19:46 Порядок Скачать торрент  

Бред какой то))pb.wtf



26-07-2020 04:51 Порядок Скачать торрент  

их ответ нашим "дозорам")pb.wtf



    Дорогой пользователь! Огромная просьба, поблагодарите релизера, оцените раздачу и оставьте свои комментарий, если Вы скачали Порядок через торрент бесплатно! Внесите свою лепту в развитие PiratBit!
    Комментировать посты могут только пользователи прошедшие не сложную регистрацию
    Показать сообщения:    

    Порядок через торрент
    Скачать бесплатно Порядок
    Порядок скачать торрент
    Порядок смотреть онлайн
    Cкачать фильм Порядок бесплатно
    Порядок скачать торрент в хорошем качестве
    Порядок смотреть онлайн бесплатно в хорошем качестве


    Вы не можете начинать темы
    Вы не можете отвечать на сообщения
    Вы не можете редактировать свои сообщения
    Вы не можете удалять свои сообщения
    Вы не можете голосовать в опросах
    Вы не можете прикреплять файлы к сообщениям
    Вы можете скачивать файлы