Ссылка на приватное зеркало всего за 1$. Внимание количество ограничено!!!

iTunes

1+1

iTunes

мы

WEB-DL

1

iTunes

Чернобыль

iTunes

Ральф против интернета

Лицензия

ПШазам

Лицензия

Оно 2

Лицензия

30
pack

Вам бонус

ВАЖНО

!!Акция!!

Alien_RageХит недели

RePack

Resident Evil 21

ИГРА 18+

pack

RePack

jed

!!Акция!!

Alien_Rage

RePack

fifa19

RePack

Assassins Creed: Odyssey

RePack

NEED FOR SPEED™ PAYBACK

3 сезон

9 сезон

Бесстыжие 9 сезон

Все сериалы

все сериалы на PB.wtf

RePack

FAR CRY 5
Ребята, катастрофически не хватает 1900р. для оплаты серверов за Октябрь (всвязи с блокировками трафик упал в 3 раза), 1-2р., выручайте.
  

Фантастические твари: Преступления Грин-де-Вальда / Fantastic Beasts: The Crimes of Grindelwald (Дэвид Йейтс) [2018, фэнтези, приключения, семейный, BDRip-AVC] MVO [HDRezka Studio] +DUB [Лицензия] pb.wtf

Фантастические твари: Преступления Грин-де-Вальда через торрент pb.wtf

Раздают: 2 [ 0 KB/s ]
Размер: 2.68 GB | Добавлен: 9 мес. назад | Торрент скачан:240 раз
Скачать  

08-03-2019 19:02 Фантастические твари: Преступления Грин-де-Вальда Скачать торрент  

Фантастические твари: Преступления Грин-де-Вальда / Fantastic Beasts: The Crimes of Grindelwald
Год выпуска: 2018
Страна: Великобритания, США
Жанр: фэнтези, приключения, семейный
Продолжительность: 02:13:49

#1: Дублированный | Лицензия
#2: Профессиональный (многоголосый) | HDRezka Studio

Субтитры: Русские (форс., полные), английские (полные)

Режиссер: Дэвид Йейтс

rating

В ролях:

Эдди Редмэйн (Newt Scamander), Джонни Депп (Grindelwald), Кэтрин Уотерстон (Tina Goldstein), Элисон Судол (Queenie Goldstein), Дэн Фоглер (Jacob Kowalski), Джуд Лоу (Albus Dumbledore), Эзра Миллер (Credence Barebone), Зои Кравиц (Leta Lestrange), Каллум Тернер (Theseus Scamander), Клаудия Ким (Nagini), Кевин Гатри (Abernathy), Кармен Эджого (Seraphina Picquery)
Описание:

Могущественный тёмный волшебник Геллерт Грин-де-Вальд пойман в Штатах, но не собирается молча сидеть в темнице и устраивает грандиозный побег. Теперь ничто не помешает ему добиться своей цели - установить превосходство волшебников над всеми немагическими существами на планете. Чтобы сорвать планы Грин-де-Вальда, Альбус Дамблдор обращается к своему бывшему студенту Ньюту Саламандеру, который соглашается помочь, не подозревая, какая опасность ему грозит. В раскалывающемся на части волшебном мире любовь и верность проверяются на прочность, а конфликт разделяет даже настоящих друзей и членов семей.

Качество: BDRip-AVC
Формат: MKV

Видео: 1024x426 (2.40:1), 23,976 fps, x264 ~1 774 kbps avg, 0.170 bit/pixel
Аудио#1: 48 kHz, AC3 Dolby Digital, 3/2 (L,C,R,l,r) + LFE ch, ~448.00 kbps avg | RUS (Лицензия)
Аудио#2: 48 kHz, AC3 Dolby Digital, 2 (L,R) ch, ~192.00 kbps avg | RUS (HDRezka Studio)
Аудио#3: 48 kHz, AC3 Dolby Digital, 3/2 (L,C,R,l,r) + LFE ch, ~448.00 kbps avg | ENG
скриншот  скриншот  скриншот  скриншот  скриншот  

Общее
Уникальный идентификатор : 222335231833027240309685005725599464067 (0xA7443543F0F2E4087F2EB502642AFA83)
Полное имя : F:OlLanDGroupFantastic.Beasts.The.Crimes.of.Grindelwald.2018.BDRip(AVC).OllanDGroup.mkv
Формат : Matroska
Версия формата : Version 4 / Version 2
Размер файла : 2,68 Гбайт
Продолжительность : 2 ч. 13 м.
Общий поток : 2864 Кбит/сек
Название фильма : Fantastic Beasts The Crimes of Grindelwald 2018 #TorpedoUK#
Дата кодирования : UTC 2019-03-08 17:33:26
Программа кодирования : mkvmerge v29.0.0 ('Like It Or Not') 64-bit
Библиотека кодирования : libebml v1.3.6 + libmatroska v1.4.9

Видео
Идентификатор : 1
Формат : AVC
Формат/Информация : Advanced Video Codec
Профиль формата : High@L4.1
Параметр CABAC формата : Да
Параметр ReFrames формата : 10 кадров
Идентификатор кодека : V_MPEG4/ISO/AVC
Продолжительность : 2 ч. 13 м.
Битрейт : 1774 Кбит/сек
Ширина : 1024 пикселя
Высота : 426 пикселей
Соотношение сторон : 2,40:1
Режим частоты кадров : Постоянный
Частота кадров : 23,976 (24000/1001) кадра/сек
Цветовое пространство : YUV
Субдискретизация насыщенности : 4:2:0
Битовая глубина : 8 бит
Тип развёртки : Прогрессивная
Бит/(Пиксели*Кадры) : 0.170
Размер потока : 1,66 Гбайт (62%)
Библиотека кодирования : x264 core 146 r2538 121396c
Настройки программы : cabac=1 / ref=10 / deblock=1:-3:-3 / analyse=0x3:0x113 / me=umh / subme=11 / psy=1 / psy_rd=0.99:0.04 / mixed_ref=1 / me_range=48 / chroma_me=1 / trellis=2 / 8x8dct=1 / cqm=0 / deadzone=21,11 / fast_pskip=1 / chroma_qp_offset=-3 / threads=6 / lookahead_threads=1 / sliced_threads=0 / nr=0 / decimate=1 / interlaced=0 / bluray_compat=0 / constrained_intra=0 / bframes=11 / b_pyramid=2 / b_adapt=2 / b_bias=0 / direct=3 / weightb=1 / open_gop=0 / weightp=2 / keyint=240 / keyint_min=23 / scenecut=40 / intra_refresh=0 / rc_lookahead=40 / rc=2pass / mbtree=0 / bitrate=1774 / ratetol=1.0 / qcomp=0.60 / qpmin=0 / qpmax=69 / qpstep=4 / cplxblur=20.0 / qblur=0.5 / vbv_maxrate=50000 / vbv_bufsize=62500 / nal_hrd=none / filler=0 / ip_ratio=1.40 / pb_ratio=1.30 / aq=1:1.00
Язык : English
Default : Да
Forced : Нет

Аудио #1
Идентификатор : 2
Формат : AC-3
Формат/Информация : Audio Coding 3
Расширение режима : CM (complete main)
Параметр Endianness формата : Big
Идентификатор кодека : A_AC3
Продолжительность : 2 ч. 13 м.
Вид битрейта : Постоянный
Битрейт : 448 Кбит/сек
Каналы : 6 каналов
Расположение каналов : Front: L C R, Side: L R, LFE
Частота : 48,0 КГц
Частота кадров : 31,250 кадров/сек (1536 spf)
Битовая глубина : 16 бит
Метод сжатия : С потерями
Размер потока : 429 Мбайт (16%)
Заголовок : DUB [License]
Язык : Russian
Default : Да
Forced : Нет

Аудио #2
Идентификатор : 3
Формат : AC-3
Формат/Информация : Audio Coding 3
Расширение режима : CM (complete main)
Параметр Endianness формата : Big
Идентификатор кодека : A_AC3
Продолжительность : 2 ч. 13 м.
Вид битрейта : Постоянный
Битрейт : 192 Кбит/сек
Каналы : 2 канала
Расположение каналов : Front: L R
Частота : 48,0 КГц
Частота кадров : 31,250 кадров/сек (1536 spf)
Битовая глубина : 16 бит
Метод сжатия : С потерями
Размер потока : 184 Мбайт (7%)
Заголовок : MVO [HDRezka Studio]
Язык : Russian
Default : Нет
Forced : Нет

Аудио #3
Идентификатор : 4
Формат : AC-3
Формат/Информация : Audio Coding 3
Расширение режима : CM (complete main)
Параметр Endianness формата : Big
Идентификатор кодека : A_AC3
Продолжительность : 2 ч. 13 м.
Вид битрейта : Постоянный
Битрейт : 448 Кбит/сек
Каналы : 6 каналов
Расположение каналов : Front: L C R, Side: L R, LFE
Частота : 48,0 КГц
Частота кадров : 31,250 кадров/сек (1536 spf)
Битовая глубина : 16 бит
Метод сжатия : С потерями
Размер потока : 429 Мбайт (16%)
Заголовок : [Original]
Язык : English
Default : Нет
Forced : Нет

Текст #1
Идентификатор : 5
Формат : UTF-8
Идентификатор кодека : S_TEXT/UTF8
Идентификатор кодека/Информация : UTF-8 Plain Text
Продолжительность : 2 ч. 0 м.
Битрейт : 1 бит/сек
Count of elements : 25
Размер потока : 1,13 Кбайт (0%)
Заголовок : Forced
Язык : Russian
Default : Да
Forced : Нет

Текст #2
Идентификатор : 6
Формат : UTF-8
Идентификатор кодека : S_TEXT/UTF8
Идентификатор кодека/Информация : UTF-8 Plain Text
Продолжительность : 2 ч. 4 м.
Битрейт : 70 бит/сек
Count of elements : 1249
Размер потока : 63,9 Кбайт (0%)
Заголовок : Full
Язык : Russian
Default : Нет
Forced : Нет

Текст #3
Идентификатор : 7
Формат : UTF-8
Идентификатор кодека : S_TEXT/UTF8
Идентификатор кодека/Информация : UTF-8 Plain Text
Продолжительность : 2 ч. 3 м.
Битрейт : 40 бит/сек
Count of elements : 1185
Размер потока : 36,8 Кбайт (0%)
Заголовок : Full
Язык : English
Default : Нет
Forced : Нет

Меню
00:00:00.000 : :Capítulo 01
00:07:15.310 : :Capítulo 02
00:21:39.381 : :Capítulo 03
00:32:56.850 : :Capítulo 04
00:41:41.124 : :Capítulo 05
00:50:26.190 : :Capítulo 06
00:58:21.540 : :Capítulo 07
01:12:02.860 : :Capítulo 08
01:20:23.610 : :Capítulo 09
01:34:50.059 : :Capítulo 10
01:43:08.557 : :Capítulo 11
01:51:42.237 : :Capítulo 12
02:00:31.641 : :Capítulo 13

pb.wtf



Скачать Фантастические твари: Преступления Грин-де-Вальда через торрент https://i109.fastpic.ru/big/2019/0227/36/e2cf67f48b3b184001d1e7084c84f836.jpg Скачать фильм Фантастические твари: Преступления Грин-де-Вальда через торрент бесплантно в хорошем качестве Описание: Могущественный тёмный волшебник Геллерт Грин-де-Вальд пойман в Штатах, но не собирается молча сидеть в темнице и устраивает ... 10 10 7
Торрент: Зарегистрирован [2019-03-08 19:02] · скачан: 240 раз
Статус: √ проверено
Размер: 2.68 GB
Как cкачать? Как скачать Фантастические твари: Преступления Грин-де-Вальда через торрент | qTorrent

% Раздел Тема Автор DL S | L
Фильмы (HD 720p, 1080p) (48-60 fps) [ 5.79 GB ] Фантастические твари: Преступления Грин-де-Вальда / Fantastic Beasts: The Crimes of Grindelwald [2018 BDRip - HEVC 1080p 12 bit 60 FPS] dd2d3 Скачать
6 | 0
3D Фильмы [ 6.38 GB ] Фантастические твари: Преступления Грин-де-Вальда / Fantastic Beasts: The Crimes of Grindelwald [2018 BDRip 1080p ] Анаглиф slaventi-69 Скачать
1 | 0
Фильмы (WEB-DL 720p, 1080p) [ 5.28 GB ] Фантастические твари: Преступления Грин-де-Вальда / Fantastic Beasts: The Crimes of Grindelwald [2018 WEB-DL 1080p] MVO [HDRezka Studio] +DUB bober100 Скачать
12 | 0
3D Фильмы [ 18.55 GB ] Фантастические твари: Преступления Грин-де-Вальда в 3Д / Fantastic Beasts: The Crimes of Grindelwald 3D [2018 BDRip 1080p] OverUnder / Вертикальная стереопара [ ] serega768 Скачать
1 | 0
Фильмы [HD 720p, 1080p] (Хороший звук DUB, MVO) [ 10.34 GB ] Фантастические твари: Преступления Грин-де-Вальда / Fantastic Beasts: The Crimes of Grindelwald [2018 BDRip 1080p] MVO [HDRezka Studio] +DUB [] bober100 Скачать
3 | 0
3D Фильмы [ 11.48 GB ] Фантастические твари: Преступления Грин-де-Вальда в 3Д / Fantastic Beasts: The Crimes of Grindelwald 3D [2018 BDRip 1080p] DUB [] / Вертикальная анаморфная стереопара sheker187 Скачать
2 | 0
Фильмы (Blu-ray, BD-Remux, HDDVD) [ 38.42 GB ] Фантастические твари: Преступления Грин-де-Вальда / Fantastic Beasts: The Crimes of Grindelwald [2018 BD Remux 1080p] [2D/3D] MVO [HDRezka Studio] +DUB [] bober100 Скачать
1 | 0

28-11-2019 20:33  

Отключить всю рекламу на сайте

10-03-2019 16:02 Фантастические твари: Преступления Грин-де-Вальда Скачать торрент  

Фильм редкостное Говно с большой буквы!Сходил на него в кинотеатр...верните деньги!))))pb.wtf



    Дорогой пользователь! Огромная просьба, поблагодарите релизера, оцените раздачу и оставьте свои комментарий, если Вы скачали Фантастические твари: Преступления Грин-де-Вальда через торрент бесплатно! Внесите свою лепту в развитие PiratBit!
    Комментировать посты могут только пользователи прошедшие не сложную регистрацию
    Показать сообщения:    

    Фантастические твари: Преступления Грин-де-Вальда через торрент
    Скачать бесплатно Фантастические твари: Преступления Грин-де-Вальда
    Фантастические твари: Преступления Грин-де-Вальда скачать торрент
    Фантастические твари: Преступления Грин-де-Вальда смотреть онлайн
    Cкачать фильм Фантастические твари: Преступления Грин-де-Вальда бесплатно
    Фантастические твари: Преступления Грин-де-Вальда скачать торрент в хорошем качестве
    Фантастические твари: Преступления Грин-де-Вальда смотреть онлайн бесплатно в хорошем качестве


    Вы не можете начинать темы
    Вы не можете отвечать на сообщения
    Вы не можете редактировать свои сообщения
    Вы не можете удалять свои сообщения
    Вы не можете голосовать в опросах
    Вы не можете прикреплять файлы к сообщениям
    Вы можете скачивать файлы