новый адрес
Ссылка на приватное зеркало всего за 1$. Внимание количество ограничено!!!

iTunes

1+1

iTunes

мы

iTunes

1

iTunes

Чернобыль

iTunes

Ральф против интернета

Лицензия

ПШазам

Лицензия

Оно 2

Лицензия

30
pack

Вам бонус

ВАЖНО

!!Акция!!

Alien_RageХит недели

RePack

Resident Evil 21

ИГРА 18+

pack

RePack

jed

!!Акция!!

Alien_Rage

RePack

fifa19

RePack

Assassins Creed: Odyssey

RePack

NEED FOR SPEED™ PAYBACK

3 сезон

9 сезон

Бесстыжие 9 сезон

Все сериалы

все сериалы на PB.wtf

RePack

FAR CRY 5
Ребята, катастрофически не хватает 1900р. для оплаты серверов за Октябрь (всвязи с блокировками трафик упал в 3 раза), 1-2р., выручайте.
  

Я, бабушка, Илико и Илларион (Тенгиз Абуладзе) [1962, СССР, мелодрама, комедия, DVDRip от AVP Studio] pb.wtf

Я, бабушка, Илико и Илларион через торрент pb.wtf

Размер: 1.09 GB | Добавлен: 8 мес. назад | Торрент скачан:6 раз
Скачать  

10-03-2019 09:36 Я, бабушка, Илико и Илларион Скачать торрент  

Я, бабушка, Илико и Илларион
Страна: СССР
Производство: Грузия-фильм

Жанр: мелодрама, комедия
Год выпуска: 1962
Продолжительность: 01:25:31

Перевод: Не требуется
Cубтитры: нет
Оригинальная аудиодорожка: русский

Режиссер: Тенгиз Абуладзе

В ролях:
Серго Орджоникидзе, Сесилия Такаишвили, Александр (Сандро) Жоржолиани, Григорий (Григол) Ткабладзе, Манана Абазадзе, Кира Андроникашвили (II), Тенгиз Даушвили, Александр Гомелаури...
Об актёрах подробней

Описание:
Действие, ограниченное околицей гурийской деревни и лишь ненадолго перенесенное в Тбилиси, всего несколько героев — бабушка, на чьем попечении находится Зурико, тот самый, который в титрах обозначен местоимением «Я» и от имени которого ведется в фильме рассказ, соседи-старики Илико и Илларион, добровольно взявшие на себя радость и ответственность по воспитанию и формированию Зурикелы, его подружка Мери, односельчане, школьный учитель. Но при этом затронуты глубокие пласты никогда до этого на экране не возникавшей жизни!

Источник: DVD5 R5
Качество видео: DVDRip
Формат видео: AVI

Видео: 704х496 (1,419:1), 25,000 fps, XviD ~ 1361 kbps avg, 0.156 bit/pixel
Аудио: 48 kHz, Dolby Digital AC3 5.1, 448 kbps

Раздача от:
Общее
Полное имя : YA,babushka,Iliko.i.Illarion.1962.DVDRip_[New-team]_by_AVP_Studio.avi
Формат : AVI
Формат/Информация : Audio Video Interleave
Размер файла : 1,09 Гбайт
Продолжительность : 1 ч. 25 м.
Общий поток : 1818 Кбит/сек
Программа кодирования : VirtualDubMod 1.5.10.3 | www.virtualdub-fr.org || (build 2550/release)
Библиотека кодирования : VirtualDubMod build 2550/release

Видео
Идентификатор : 0
Формат : MPEG-4 Visual
Профиль формата : Advanced Simple@L5
Настройки формата : BVOP1 / Custom Matrix
Параметр BVOP формата : 1
Параметр QPel формата : Нет
Параметр GMC формата : Без точки перехода
Параметр матрицы формата : Выборочная
Идентификатор кодека : XVID
Идентификатор кодека/Подсказка : XviD
Продолжительность : 1 ч. 25 м.
Битрейт : 1361 Кбит/сек
Ширина : 704 пикселя
Высота : 496 пикселей
Соотношение сторон : 1,419
Частота кадров : 25,000 кадров/сек
Цветовое пространство : YUV
Субдискретизация насыщенности : 4:2:0
Битовая глубина : 8 бит
Тип развёртки : Прогрессивная
Метод сжатия : С потерями
Бит/(Пиксели*Кадры) : 0.156
Размер потока : 832 Мбайт (75%)
Библиотека кодирования : XviD 73

Аудио
Идентификатор : 1
Формат : AC-3
Формат/Информация : Audio Coding 3
Коммерческое название : Dolby Digital
Идентификатор кодека : 2000
Продолжительность : 1 ч. 25 м.
Вид битрейта : Постоянный
Битрейт : 448 Кбит/сек
Каналы : 6 каналов
Channel layout : L R C LFE Ls Rs
Частота : 48,0 КГц
Частота кадров : 31,250 кадров/сек (1536 SPF)
Битовая глубина : 16 бит
Метод сжатия : С потерями
Размер потока : 274 Мбайт (25%)
Выравнивание : Разделение по промежуткам
Продолжительность промежутка : 40 мс. (1,00 видеокадр)
Время предзагрузки промежутка : 500 мс
pb.wtf



Скачать Я, бабушка, Илико и Илларион через торрент http://picplus.ru/img/1903/10/5d7921ba.png Скачать фильм Я, бабушка, Илико и Илларион через торрент бесплантно в хорошем качестве Описание:Действие, ограниченное околицей гурийской деревни и лишь ненадолго перенесенное в Тбилиси, всего несколько героев — бабушка, на ... 5 10 1
Торрент: Зарегистрирован [2019-03-10 09:36] · скачан: 6 раз
Статус: √ проверено
Размер: 1.09 GB
Как cкачать? Как скачать Я, бабушка, Илико и Илларион через торрент | qTorrent

% Раздел Тема Автор DL S | L
Кино СССР [ 1.09 GB ] Я бабушка Илико и Илларион [1962 СССР DVDRip-AVC от AVP Studio] AVP Studio Скачать
1 | 0
    Дорогой пользователь! Огромная просьба, поблагодарите релизера, оцените раздачу и оставьте свои комментарий, если Вы скачали Я, бабушка, Илико и Илларион через торрент бесплатно! Внесите свою лепту в развитие PiratBit!
    Комментировать посты могут только пользователи прошедшие не сложную регистрацию
    Показать сообщения:    

    Я, бабушка, Илико и Илларион через торрент
    Скачать бесплатно Я, бабушка, Илико и Илларион
    Я, бабушка, Илико и Илларион скачать торрент
    Я, бабушка, Илико и Илларион смотреть онлайн
    Cкачать фильм Я, бабушка, Илико и Илларион бесплатно
    Я, бабушка, Илико и Илларион скачать торрент в хорошем качестве
    Я, бабушка, Илико и Илларион смотреть онлайн бесплатно в хорошем качестве


    Вы не можете начинать темы
    Вы не можете отвечать на сообщения
    Вы не можете редактировать свои сообщения
    Вы не можете удалять свои сообщения
    Вы не можете голосовать в опросах
    Вы не можете прикреплять файлы к сообщениям
    Вы можете скачивать файлы