новый адрес
Мега распродажа FORZA HORIZON 4 ULTIMATE+ВСЕ DLC+ОНЛАЙН всего за 499р. 349 руб. (супер цена). Внимание количество ограничено!!!

iTunes

1+1

iTunes

мы

iTunes

1

iTunes

Чернобыль

iTunes

Ральф против интернета

Лицензия

ПШазам

Лицензия

Игра престолов

Лицензия

30
pack

ВАЖНО

!!Акция!!

Alien_RageХит недели

RePack

Resident Evil 21

ИГРА 18+

pack

RePack

Metro:Exodus

!!Акция!!

Alien_Rage

RePack

fifa19

RePack

Assassins Creed: Odyssey

RePack

NEED FOR SPEED™ PAYBACK

3 сезон

9 сезон

Бесстыжие 9 сезон

Все сериалы

все сериалы на PB.wtf

RePack

FAR CRY 5
Ребята, катастрофически не хватает 1900р. для оплаты серверов за Октябрь (всвязи с блокировками трафик упал в 3 раза), 1-2р., выручайте.
  

Я, бабушка, Илико и Илларион (Тенгиз Абуладзе) [1962, СССР, мелодрама, комедия, DVDRip-AVC от AVP Studio] pb.wtf

Я, бабушка, Илико и Илларион через торрент pb.wtf

Размер: 1.09 GB | Добавлен: 8 мес. назад | Торрент скачан:14 раз
Скачать  

10-03-2019 09:37 Я, бабушка, Илико и Илларион Скачать торрент  

Я, бабушка, Илико и Илларион
Страна: СССР
Производство: Грузия-фильм

Жанр: мелодрама, комедия
Год выпуска: 1962
Продолжительность: 01:25:31

Перевод: Не требуется
Cубтитры: нет
Оригинальная аудиодорожка: русский

Режиссер: Тенгиз Абуладзе

В ролях:
Серго Орджоникидзе, Сесилия Такаишвили, Александр (Сандро) Жоржолиани, Григорий (Григол) Ткабладзе, Манана Абазадзе, Кира Андроникашвили (II), Тенгиз Даушвили, Александр Гомелаури...
Об актёрах подробней

Описание:
Действие, ограниченное околицей гурийской деревни и лишь ненадолго перенесенное в Тбилиси, всего несколько героев — бабушка, на чьем попечении находится Зурико, тот самый, который в титрах обозначен местоимением «Я» и от имени которого ведется в фильме рассказ, соседи-старики Илико и Илларион, добровольно взявшие на себя радость и ответственность по воспитанию и формированию Зурикелы, его подружка Мери, односельчане, школьный учитель. Но при этом затронуты глубокие пласты никогда до этого на экране не возникавшей жизни!

Источник: DVD5 R5
Качество видео: DVDRip-AVC
Формат видео: MKV

Видео: 712->766х540 (1,420:1), 25,000 fps, H264 ~ 1373 kbps avg, 0.143 bit/pixel
Аудио: 48 kHz, Dolby Digital AC3 5.1, 448 kbps

Раздача от:
Общее
Полное имя : YA,babushka,Iliko.i.Illarion.1962.DVDRip-AVC_[New-team]_by_AVP_Studio.mkv
Формат : Matroska
Версия формата : Version 2
Размер файла : 1,09 Гбайт
Продолжительность : 1 ч. 25 м.
Общий поток : 1823 Кбит/сек
Дата кодирования : UTC 2019-03-06 01:07:28
Программа кодирования : mkvmerge v6.1.0 ('Old Devil') built on Mar 4 2013 09:10:42
Библиотека кодирования : libebml v1.3.0 + libmatroska v1.4.0

Видео
Идентификатор : 1
Формат : AVC
Формат/Информация : Advanced Video Codec
Профиль формата : High@L4.1
Настройки формата : CABAC / 10 Ref Frames
Параметр CABAC формата : Да
Параметр RefFrames формата : 10 кадров
Идентификатор кодека : V_MPEG4/ISO/AVC
Продолжительность : 1 ч. 25 м.
Битрейт : 1373 Кбит/сек
Ширина : 712 пикселей
Высота : 540 пикселей
Соотношение сторон : 1,420
Режим частоты кадров : Постоянный
Частота кадров : 25,000 кадров/сек
Цветовое пространство : YUV
Субдискретизация насыщенности : 4:2:0
Битовая глубина : 8 бит
Тип развёртки : Прогрессивная
Бит/(Пиксели*Кадры) : 0.143
Размер потока : 819 Мбайт (73%)
Библиотека кодирования : x264 core 157 r2935 545de2f
Настройки программы : cabac=1 / ref=10 / deblock=1:-2:-1 / analyse=0x3:0x113 / me=umh / subme=10 / psy=1 / psy_rd=1.00:0.00 / mixed_ref=1 / me_range=32 / chroma_me=1 / trellis=2 / 8x8dct=1 / cqm=0 / deadzone=21,11 / fast_pskip=1 / chroma_qp_offset=-2 / threads=6 / lookahead_threads=1 / sliced_threads=0 / nr=0 / decimate=0 / interlaced=0 / bluray_compat=0 / constrained_intra=0 / bframes=8 / b_pyramid=2 / b_adapt=2 / b_bias=0 / direct=3 / weightb=1 / open_gop=0 / weightp=2 / keyint=250 / keyint_min=25 / scenecut=40 / intra_refresh=0 / rc=2pass / mbtree=0 / bitrate=1373 / ratetol=1.0 / qcomp=0.60 / qpmin=0 / qpmax=69 / qpstep=4 / cplxblur=20.0 / qblur=0.5 / ip_ratio=1.40 / pb_ratio=1.30 / aq=1:1.00
Default : Да
Forced : Нет

Аудио
Идентификатор : 2
Формат : AC-3
Формат/Информация : Audio Coding 3
Коммерческое название : Dolby Digital
Идентификатор кодека : A_AC3
Продолжительность : 1 ч. 25 м.
Вид битрейта : Постоянный
Битрейт : 448 Кбит/сек
Каналы : 6 каналов
Channel layout : L R C LFE Ls Rs
Частота : 48,0 КГц
Частота кадров : 31,250 кадров/сек (1536 SPF)
Битовая глубина : 16 бит
Метод сжатия : С потерями
Размер потока : 274 Мбайт (25%)
Default : Да
Forced : Нет
pb.wtf



Скачать Я, бабушка, Илико и Илларион через торрент http://picplus.ru/img/1903/10/5d7921ba.png Скачать фильм Я, бабушка, Илико и Илларион через торрент бесплантно в хорошем качестве Описание:Действие, ограниченное околицей гурийской деревни и лишь ненадолго перенесенное в Тбилиси, всего несколько героев — бабушка, на ... 10 10 1
Торрент: Зарегистрирован [2019-03-10 09:37] · скачан: 14 раз
Статус: √ проверено
Размер: 1.09 GB
Как cкачать? Как скачать Я, бабушка, Илико и Илларион через торрент | qTorrent

% Раздел Тема Автор DL S | L
Кино СССР [ 1.09 GB ] Я бабушка Илико и Илларион [1962 СССР DVDRip от AVP Studio] AVP Studio Скачать
1 | 0


>> Регистрируемся здесь <<






Отзывы и комментарии о схеме читаем и пишем здесь: ---> Отзывы и комментарии о схеме

Новые благодарочки в телеграм довольных пользователей:
скриншот   скриншот   скриншот   скриншот   скриншот
    Дорогой пользователь! Огромная просьба, поблагодарите релизера, оцените раздачу и оставьте свои комментарий, если Вы скачали Я, бабушка, Илико и Илларион через торрент бесплатно! Внесите свою лепту в развитие PiratBit!
    Комментировать посты могут только пользователи прошедшие не сложную регистрацию
    Показать сообщения:    

    Я, бабушка, Илико и Илларион через торрент
    Скачать бесплатно Я, бабушка, Илико и Илларион
    Я, бабушка, Илико и Илларион скачать торрент
    Я, бабушка, Илико и Илларион смотреть онлайн
    Cкачать фильм Я, бабушка, Илико и Илларион бесплатно
    Я, бабушка, Илико и Илларион скачать торрент в хорошем качестве
    Я, бабушка, Илико и Илларион смотреть онлайн бесплатно в хорошем качестве


    Вы не можете начинать темы
    Вы не можете отвечать на сообщения
    Вы не можете редактировать свои сообщения
    Вы не можете удалять свои сообщения
    Вы не можете голосовать в опросах
    Вы не можете прикреплять файлы к сообщениям
    Вы можете скачивать файлы