новый адрес
Мега распродажа FORZA HORIZON 4 ULTIMATE+ВСЕ DLC+ОНЛАЙН всего за 499р. 349 руб. (супер цена). Внимание количество ограничено!!!

iTunes

1+1

iTunes

мы

iTunes

1

iTunes

Чернобыль

iTunes

Ральф против интернета

Лицензия

ПШазам

Лицензия

Оно 2

Лицензия

30
pack

ВАЖНО

!!Акция!!

Alien_RageХит недели

RePack

Resident Evil 21

ИГРА 18+

pack

RePack

Metro:Exodus

!!Акция!!

Alien_Rage

RePack

fifa19

RePack

Assassins Creed: Odyssey

RePack

NEED FOR SPEED™ PAYBACK

3 сезон

9 сезон

Бесстыжие 9 сезон

Все сериалы

все сериалы на PB.wtf

RePack

FAR CRY 5
Ребята, катастрофически не хватает 1900р. для оплаты серверов за Октябрь (всвязи с блокировками трафик упал в 3 раза), 1-2р., выручайте.
  

Гоголь. Страшная месть (Егор Баранов) [2018, детектив, приключения, триллер, BDRip] [Лицензия BD RUS] pb.wtf

Гоголь. Страшная месть через торрент pb.wtf

Размер: 1.45 GB | Добавлен: 8 мес. назад | Торрент скачан:120 раз
Скачать  

10-03-2019 16:15 Гоголь. Страшная месть Скачать торрент  

Гоголь. Страшная месть
Год выпуска: 2018
Страна: Россия
Жанр: детектив, приключения, триллер
Продолжительность: 01:46:40
Перевод: Не требуется | Лицензия BD RUS
Субтитры: отсутствуют

Режиссер: Егор Баранов

rating

В ролях:

Александр Петров, Олег Меньшиков, Евгений Стычкин, Артем Сучков, Таисия Вилкова, Юлия Франц, Ян Цапник, Евгений Сытый, Сергей Бадюк, Артем Ткаченко

Описание:

Две сотни лет назад малороссийские хутора разоряла шайка нехристей-ляхов во главе с могущественным колдуном. С тех пор рыщет в окрестностях Диканьки неизвестный Чёрный Всадник, ловит молодых девушек и жестоко расправляется с ними, будто мстит за что. И следующей его жертвой может стать Лиза. Чтобы спасти возлюбленную, писарь Николай Гоголь должен разбить злые чары и победить древнее проклятье. Ни одному из смертных ещё не удавалось это, но к счастью, на помощь Гоголю приходит гениальный столичный сыщик Яков Гуро, и у него уже есть главный подозреваемый...

Качество: BDRip
Формат: AVI

Видео: Xvid 73, 720x304, ~1481 kbps, 24,000 fps
Аудио: русский, AC3, 5.1 ch, 48 kHz, 16 bit, 448 kbps
скриншот  скриншот  скриншот  скриншот  скриншот  

Общее
Полное имя : E:TorrentGogolStrashnayaMestBDRip.avi
Формат : AVI
Формат/Информация : Audio Video Interleave
Профиль формата : OpenDML
Размер файла : 1,45 Гбайт
Продолжительность : 1 ч. 46 м.
Общий поток : 1941 Кбит/сек
Программа кодирования : XviD4PSP 6.0 / 54.27.101

Видео
Идентификатор : 0
Формат : MPEG-4 Visual
Профиль формата : Advanced Simple@L5
Настройки формата : BVOP2 / Custom Matrix
Параметр BVOP формата : 2
Параметр QPel формата : Нет
Параметр GMC формата : Без точки перехода
Параметр матрицы формата : Выборочная
Идентификатор кодека : XVID
Идентификатор кодека/Подсказка : XviD
Продолжительность : 1 ч. 46 м.
Битрейт : 1481 Кбит/сек
Ширина : 720 пикселей
Высота : 304 пикселя
Соотношение сторон : 2,35:1
Частота кадров : 24,000 кадра/сек
Цветовое пространство : YUV
Субдискретизация насыщенности : 4:2:0
Битовая глубина : 8 бит
Тип развёртки : Прогрессивная
Метод сжатия : С потерями
Бит/(Пиксели*Кадры) : 0.282
Размер потока : 1,10 Гбайт (76%)
Библиотека кодирования : XviD 73

Аудио
Идентификатор : 1
Формат : AC-3
Формат/Информация : Audio Coding 3
Идентификатор кодека : 2000
Продолжительность : 1 ч. 46 м.
Вид битрейта : Постоянный
Битрейт : 448 Кбит/сек
Каналы : 6 каналов
Расположение каналов : Front: L C R, Side: L R, LFE
Частота : 48,0 КГц
Частота кадров : 31,250 кадров/сек (1536 SPF)
Битовая глубина : 16 бит
Метод сжатия : С потерями
Размер потока : 342 Мбайт (23%)
Выравнивание : Соединение по промежуткам
Продолжительность промежутка : 32 мс. (0,77 видеокадр)

pb.wtf



Скачать Гоголь. Страшная месть через торрент http://lostpix.com/thumbs/2019-03/10/hg1nrw9lw9mgnt5wp9qiucjuh.png Скачать фильм Гоголь. Страшная месть через торрент бесплантно в хорошем качестве Описание: Две сотни лет назад малороссийские хутора разоряла шайка нехристей-ляхов во главе с могущественным колдуном. С тех пор рыщет в ... 9 10 9
Торрент: Зарегистрирован [2019-03-10 16:15] · скачан: 120 раз
Статус: √ проверено
Размер: 1.45 GB
Как cкачать? Как скачать Гоголь. Страшная месть через торрент | qTorrent

% Раздел Тема Автор DL S | L
Наши фильмы (Blu-ray, BD-Remux, HDDVD) [ 25.87 GB ] Гоголь. Страшная месть [2018 BD Remux Оригинальный] Бумер Скачать
1 | 0
Наши фильмы (HD, WEB-DL 720p, 1080p) [ 4.08 GB ] Гоголь. Страшная месть [2018 BDRip-HEVC 1080p ] [] bober100 Скачать
1 | 0
Наши новые фильмы 2018-2019 [ 1.46 GB ] Гоголь. Страшная месть [2018 BDRip] [Русский] [] Twi7ter Скачать
4 | 0
Наши новые фильмы 2018-2019 [ 1.51 GB ] Гоголь. Страшная месть [2018 BDRip-AVC] [] - ExKinoRay Enigma2010 Скачать
19 | 0
Наши фильмы (Blu-ray, BD-Remux, HDDVD) [ 26.93 GB ] Гоголь. Страшная месть [2018 Blu-ray 1080p] [Rus Transfer] [] bober100 Скачать
1 | 0
Наши фильмы (HD, WEB-DL 720p, 1080p) [ 3.64 GB ] Гоголь. Страшная месть [2018 WEB-DL 1080p] bober100 Скачать
11 | 0
Наши новые фильмы 2018-2019 [ 745 MB ] Гоголь. Страшная месть [2018 HDRip-AVC] [ BD RUS] Skandar2019 Скачать
2 | 0


>> Регистрируемся здесь <<






Отзывы и комментарии о схеме читаем и пишем здесь: ---> Отзывы и комментарии о схеме

Новые благодарочки в телеграм довольных пользователей:
скриншот   скриншот   скриншот   скриншот   скриншот
    Дорогой пользователь! Огромная просьба, поблагодарите релизера, оцените раздачу и оставьте свои комментарий, если Вы скачали Гоголь. Страшная месть через торрент бесплатно! Внесите свою лепту в развитие PiratBit!
    Комментировать посты могут только пользователи прошедшие не сложную регистрацию
    Показать сообщения:    

    Гоголь. Страшная месть через торрент
    Скачать бесплатно Гоголь. Страшная месть
    Гоголь. Страшная месть скачать торрент
    Гоголь. Страшная месть смотреть онлайн
    Cкачать фильм Гоголь. Страшная месть бесплатно
    Гоголь. Страшная месть скачать торрент в хорошем качестве
    Гоголь. Страшная месть смотреть онлайн бесплатно в хорошем качестве


    Вы не можете начинать темы
    Вы не можете отвечать на сообщения
    Вы не можете редактировать свои сообщения
    Вы не можете удалять свои сообщения
    Вы не можете голосовать в опросах
    Вы не можете прикреплять файлы к сообщениям
    Вы можете скачивать файлы