Ссылка на приватное зеркало всего за 1$. Внимание количество ограничено!!!

iTunes

1+1

iTunes

мы

MV0

1

WEB-DLRip

Джокер

Пифагор

Ведьмак / The Witcher сериал

iTunes

ПШазам

iTunes

Оно 2

iTunes

30
pack

Вам бонус

ВАЖНО

!!Акция!!

Alien_RageХит недели

RePack

Resident Evil 21

ИГРА 18+

pack

RePack

jed

!!Акция!!

Alien_Rage

RePack

fifa19

RePack

Assassins Creed: Odyssey

RePack

NEED FOR SPEED™ PAYBACK

4 сезон

9 сезон

Бесстыжие 9 сезон

Все сериалы

все сериалы на PB.wtf

RePack

FAR CRY 5
  

Меня здесь нет / I'm Not Here (Мишель Шумахер) [2017, драма, WEB-DL 1080p] MVO [@MUZOBOZ@] pb.wtf

Меня здесь нет через торрент pb.wtf

Размер: 3.34 GB | Добавлен: 11 мес. назад | Торрент скачан:39 раз
Скачать  

10-03-2019 18:09 Меня здесь нет Скачать торрент  

Меня здесь нет / I'm Not HereГод выпуска: 2017
Страна: США
Жанр: драма
Продолжительность: 01:17:04
Перевод: Любительский (многоголосый) | @MUZOBOZ@
Субтитры: отсутствуют

Режиссер: Мишель Шумахер

rating

В ролях:

Дж.К. Симмонс, Себастиан Стэн, Майка Монро, Мэнди Мур, Макс Гринфилд, Иэн Армитедж, Хэролд Перрино, Джереми Магвайр, Дэвид Кокнер, Хезер Мазур

Описание:

Оставшись на старости лет в одиночестве и пытаясь побороть желание покончить с собой, Стив вспоминает свою долгую жизнь в попытках понять, почему, несмотря на все усилия, он не смог найти в ней счастье.

Качество: WEB-DL 1080p
Формат: MKV

Видео: h.264, 5 823 Кбит/с, 1920x1040
Аудио#1: Русский, (AC3, 2 ch, 384 Кбит/с)
скриншот  скриншот  скриншот  

Общее
Уникальный идентификатор : 189925882179295036906660952554035820450 (0x8EE264F574276E6EB13D17E78A1937A2)
Полное имя : D:\Im.Not.Here.2019.P.WEB-DL.1O8Op.mkv
Формат : Matroska
Версия формата : Version 2
Размер файла : 3,34 Гбайт
Продолжительность : 1 ч. 17 м.
Режим общего битрейта : Переменный
Общий поток : 6208 Кбит/сек
Дата кодирования : UTC 2019-03-09 08:53:13
Программа кодирования : mkvmerge v8.3.0 ('Over the Horizon') 64bit
Библиотека кодирования : libebml v1.3.1 + libmatroska v1.4.2

Видео
Идентификатор : 1
Формат : AVC
Формат/Информация : Advanced Video Codec
Профиль формата : High@L4.1
Параметр CABAC формата : Да
Параметр RefFrames формата : 4 кадра
Идентификатор кодека : V_MPEG4/ISO/AVC
Продолжительность : 1 ч. 17 м.
Вид битрейта : Переменный
Битрейт : 5823 Кбит/сек
Максимальный битрейт : 6800 Кбит/сек
Ширина : 1920 пикселей
Высота : 1040 пикселей
Соотношение сторон : 1,85:1
Режим частоты кадров : Постоянный
Частота кадров : 23,976 (24000/1001) кадра/сек
Стандарт вещания : Component
Цветовое пространство : YUV
Субдискретизация насыщенности : 4:2:0
Битовая глубина : 8 бит
Тип развёртки : Прогрессивная
Бит/(Пиксели*Кадры) : 0.119
Размер потока : 3,07 Гбайт (92%)
Default : Да
Forced : Нет
Цветовой диапазон : Limited
Основные цвета : BT.709
Характеристики трансфера : BT.709
Коэффициенты матрицы : BT.709

Аудио
Идентификатор : 2
Формат : AC-3
Формат/Информация : Audio Coding 3
Расширение режима : CM (complete main)
Параметр Endianness формата : Big
Идентификатор кодека : A_AC3
Продолжительность : 1 ч. 17 м.
Вид битрейта : Постоянный
Битрейт : 384 Кбит/сек
Каналы : 2 канала
Расположение каналов : Front: L R
Частота : 48,0 КГц
Частота кадров : 31,250 кадров/сек (1536 spf)
Метод сжатия : С потерями
Размер потока : 212 Мбайт (6%)
Default : Да
Forced : Нет

pb.wtf



Скачать Меня здесь нет через торрент https://a.radikal.ru/a16/1903/50/644b02681679.jpg Скачать фильм Меня здесь нет через торрент бесплантно в хорошем качестве Описание: Оставшись на старости лет в одиночестве и пытаясь побороть желание покончить с собой, Стив вспоминает свою долгую жизнь в ... 10 10 2
Торрент: Зарегистрирован [2019-03-10 18:09] · скачан: 39 раз
Статус: T временная
Размер: 3.34 GB
Как cкачать? Как скачать Меня здесь нет через торрент | qTorrent

28-11-2019 20:33  

Отключить всю рекламу на сайте

    Дорогой пользователь! Огромная просьба, поблагодарите релизера, оцените раздачу и оставьте свои комментарий, если Вы скачали Меня здесь нет через торрент бесплатно! Внесите свою лепту в развитие PiratBit!
    Комментировать посты могут только пользователи прошедшие не сложную регистрацию
    Показать сообщения:    

    Меня здесь нет через торрент
    Скачать бесплатно Меня здесь нет
    Меня здесь нет скачать торрент
    Меня здесь нет смотреть онлайн
    Cкачать фильм Меня здесь нет бесплатно
    Меня здесь нет скачать торрент в хорошем качестве
    Меня здесь нет смотреть онлайн бесплатно в хорошем качестве


    Вы не можете начинать темы
    Вы не можете отвечать на сообщения
    Вы не можете редактировать свои сообщения
    Вы не можете удалять свои сообщения
    Вы не можете голосовать в опросах
    Вы не можете прикреплять файлы к сообщениям
    Вы можете скачивать файлы