Ссылка на приватное зеркало всего за 1$. Внимание количество ограничено!!!

iTunes

1+1

iTunes

мы

WEB-DL

1

iTunes

Чернобыль

iTunes

Ральф против интернета

Лицензия

ПШазам

Лицензия

Оно 2

Лицензия

30
pack

Вам бонус

ВАЖНО

!!Акция!!

Alien_RageХит недели

RePack

Resident Evil 21

ИГРА 18+

pack

RePack

jed

!!Акция!!

Alien_Rage

RePack

fifa19

RePack

Assassins Creed: Odyssey

RePack

NEED FOR SPEED™ PAYBACK

3 сезон

9 сезон

Бесстыжие 9 сезон

Все сериалы

все сериалы на PB.wtf

RePack

FAR CRY 5
Ребята, катастрофически не хватает 1900р. для оплаты серверов за Октябрь (всвязи с блокировками трафик упал в 3 раза), 1-2р., выручайте.
  

Белый парень Рик / White Boy Rick (Ян Деманж) [2018, драма, криминал, BDRip-AVC] MVO [HDRezka Studio] pb.wtf

Белый парень Рик через торрент pb.wtf

Раздают: 2 [ 0 KB/s ]
Размер: 1.89 GB | Добавлен: 9 мес. назад | Торрент скачан:340 раз
Скачать  

10-03-2019 19:11 Белый парень Рик Скачать торрент  

Белый парень Рик / White Boy Rick Год выпуска: 2018
Страна: США
Жанр: драма, криминал
Продолжительность: 01:51:06
Перевод: Профессиональный (многоголосый) | HDRezka Studio
Субтитры: Русские (полные, присутствует ненорматив.), Английские (полные, SDH)

Режиссер: Ян Деманж

rating

В ролях:

Мэттью МакКонахи, Ричи Мерритт, Бел Паули, Дженнифер Джейсон Ли, Брайан Тайри Генри, Рори Кокрейн, АрДжей Сайлер, Джонатан Мэйджерс, Эдди Марсан, Тейлор Пейдж

Описание:

Основанная на реальных событиях история жизни Ричарда Вэрша-младшего, который в 80-х годах прошлого века работал тайным полицейским осведомителем, затем сам стал наркодилером, был арестован и приговорен к пожизненному тюремному сроку.

Качество: BDRip-AVC
Формат: MKV

Видео: 1024x428 (2.40:1), 23,976 fps, x264 ~1 794 kbps avg, 0.171 bit/pixel
Аудио#1: 48 kHz, AC3 Dolby Digital, 2 (L,R) ch, ~192.00 kbps avg | RUS (HDRezka Studio)
Аудио#2: 48 kHz, AC3 Dolby Digital, 3/2 (L,C,R,l,r) + LFE ch, ~448.00 kbps avg | ENG
скриншот  скриншот  скриншот  скриншот  скриншот  

Общее
Уникальный идентификатор : 114517711880405145070428788738860559564 (0x56274F1DB99CA9A2C86E3A7FE270ACCC)
Полное имя : F:OlLanDGroupWhite.Boy.Rick.2018.BDRip(AVC).OlLanDGroup.mkv
Формат : Matroska
Версия формата : Version 4 / Version 2
Размер файла : 1,89 Гбайт
Продолжительность : 1 ч. 51 м.
Общий поток : 2436 Кбит/сек
Название фильма : White.Boy.Rick.2018 #TorpedoUK#
Дата кодирования : UTC 2019-03-10 02:10:36
Программа кодирования : mkvmerge v29.0.0 ('Like It Or Not') 64-bit
Библиотека кодирования : libebml v1.3.6 + libmatroska v1.4.9

Видео
Идентификатор : 1
Формат : AVC
Формат/Информация : Advanced Video Codec
Профиль формата : High@L4.1
Параметр CABAC формата : Да
Параметр ReFrames формата : 10 кадров
Идентификатор кодека : V_MPEG4/ISO/AVC
Продолжительность : 1 ч. 51 м.
Битрейт : 1794 Кбит/сек
Ширина : 1024 пикселя
Высота : 428 пикселей
Соотношение сторон : 2,40:1
Режим частоты кадров : Постоянный
Частота кадров : 23,976 (24000/1001) кадра/сек
Цветовое пространство : YUV
Субдискретизация насыщенности : 4:2:0
Битовая глубина : 8 бит
Тип развёртки : Прогрессивная
Бит/(Пиксели*Кадры) : 0.171
Размер потока : 1,39 Гбайт (74%)
Библиотека кодирования : x264 core 146 r2538 121396c
Настройки программы : cabac=1 / ref=10 / deblock=1:-2:-3 / analyse=0x3:0x113 / me=umh / subme=11 / psy=1 / psy_rd=0.95:0.07 / mixed_ref=1 / me_range=48 / chroma_me=1 / trellis=2 / 8x8dct=1 / cqm=0 / deadzone=21,11 / fast_pskip=1 / chroma_qp_offset=-3 / threads=6 / lookahead_threads=1 / sliced_threads=0 / nr=0 / decimate=1 / interlaced=0 / bluray_compat=0 / constrained_intra=0 / bframes=11 / b_pyramid=2 / b_adapt=2 / b_bias=0 / direct=3 / weightb=1 / open_gop=0 / weightp=2 / keyint=240 / keyint_min=23 / scenecut=40 / intra_refresh=0 / rc_lookahead=40 / rc=2pass / mbtree=0 / bitrate=1794 / ratetol=1.0 / qcomp=0.60 / qpmin=0 / qpmax=69 / qpstep=4 / cplxblur=20.0 / qblur=0.5 / vbv_maxrate=50000 / vbv_bufsize=62500 / nal_hrd=none / filler=0 / ip_ratio=1.40 / pb_ratio=1.30 / aq=1:1.00
Язык : English
Default : Да
Forced : Нет

Аудио #1
Идентификатор : 2
Формат : AC-3
Формат/Информация : Audio Coding 3
Расширение режима : CM (complete main)
Параметр Endianness формата : Big
Идентификатор кодека : A_AC3
Продолжительность : 1 ч. 51 м.
Вид битрейта : Постоянный
Битрейт : 192 Кбит/сек
Каналы : 2 канала
Расположение каналов : Front: L R
Частота : 48,0 КГц
Частота кадров : 31,250 кадров/сек (1536 spf)
Битовая глубина : 16 бит
Метод сжатия : С потерями
Размер потока : 153 Мбайт (8%)
Заголовок : MVO [HDRezka Studio]
Язык : Russian
Default : Да
Forced : Нет

Аудио #2
Идентификатор : 3
Формат : AC-3
Формат/Информация : Audio Coding 3
Расширение режима : CM (complete main)
Параметр Endianness формата : Big
Идентификатор кодека : A_AC3
Продолжительность : 1 ч. 51 м.
Вид битрейта : Постоянный
Битрейт : 448 Кбит/сек
Каналы : 6 каналов
Расположение каналов : Front: L C R, Side: L R, LFE
Частота : 48,0 КГц
Частота кадров : 31,250 кадров/сек (1536 spf)
Битовая глубина : 16 бит
Метод сжатия : С потерями
Размер потока : 356 Мбайт (18%)
Заголовок : [Original]
Язык : English
Default : Нет
Forced : Нет

Текст #1
Идентификатор : 4
Формат : UTF-8
Идентификатор кодека : S_TEXT/UTF8
Идентификатор кодека/Информация : UTF-8 Plain Text
Продолжительность : 1 ч. 43 м.
Битрейт : 113 бит/сек
Count of elements : 1478
Размер потока : 86,3 Кбайт (0%)
Заголовок : Full
Язык : Russian
Default : Нет
Forced : Нет

Текст #2
Идентификатор : 5
Формат : UTF-8
Идентификатор кодека : S_TEXT/UTF8
Идентификатор кодека/Информация : UTF-8 Plain Text
Продолжительность : 1 ч. 44 м.
Битрейт : 68 бит/сек
Count of elements : 1550
Размер потока : 51,9 Кбайт (0%)
Заголовок : Full
Язык : English
Default : Нет
Forced : Нет

Текст #3
Идентификатор : 6
Формат : UTF-8
Идентификатор кодека : S_TEXT/UTF8
Идентификатор кодека/Информация : UTF-8 Plain Text
Продолжительность : 1 ч. 44 м.
Битрейт : 98 бит/сек
Count of elements : 1758
Размер потока : 75,5 Кбайт (0%)
Заголовок : SDH
Язык : English
Default : Нет
Forced : Нет

Меню
00:00:00.000 : :Chapter 01
00:02:44.581 : :Chapter 02
00:04:14.045 : :Chapter 03
00:05:18.151 : :Chapter 04
00:06:56.624 : :Chapter 05
00:08:22.418 : :Chapter 06
00:09:53.301 : :Chapter 07
00:11:29.438 : :Chapter 08
00:12:59.236 : :Chapter 09
00:14:28.492 : :Chapter 10
00:16:05.005 : :Chapter 11
00:17:37.598 : :Chapter 12
00:19:08.063 : :Chapter 13
00:20:40.155 : :Chapter 14
00:22:12.080 : :Chapter 15
00:24:12.659 : :Chapter 16
00:26:16.700 : :Chapter 17
00:28:10.563 : :Chapter 18
00:30:15.313 : :Chapter 19
00:32:13.014 : :Chapter 20
00:34:06.669 : :Chapter 21
00:35:45.476 : :Chapter 22
00:37:15.608 : :Chapter 23
00:38:44.447 : :Chapter 24
00:40:16.288 : :Chapter 25
00:41:47.004 : :Chapter 26
00:43:16.719 : :Chapter 27
00:44:51.522 : :Chapter 28
00:46:22.446 : :Chapter 29
00:47:53.370 : :Chapter 30
00:49:25.504 : :Chapter 31
00:50:55.677 : :Chapter 32
00:52:27.602 : :Chapter 33
00:55:29.826 : :Chapter 34
00:57:01.459 : :Chapter 35
00:58:33.259 : :Chapter 36
01:00:04.142 : :Chapter 37
01:01:36.901 : :Chapter 38
01:03:07.700 : :Chapter 39
01:06:07.505 : :Chapter 40
01:07:38.387 : :Chapter 41
01:09:36.380 : :Chapter 42
01:11:36.041 : :Chapter 43
01:13:35.828 : :Chapter 44
01:15:36.532 : :Chapter 45
01:16:45.058 : :Chapter 46
01:18:46.054 : :Chapter 47
01:20:37.833 : :Chapter 48
01:22:37.410 : :Chapter 49
01:24:38.907 : :Chapter 50
01:26:40.820 : :Chapter 51
01:28:41.816 : :Chapter 52
01:30:43.020 : :Chapter 53
01:32:44.934 : :Chapter 54
01:34:46.138 : :Chapter 55
01:36:46.258 : :Chapter 56
01:38:49.548 : :Chapter 57
01:40:50.294 : :Chapter 58
01:42:51.915 : :Chapter 59
01:44:33.308 : :Chapter 60

pb.wtf



Скачать Белый парень Рик через торрент https://i110.fastpic.ru/big/2019/0310/ab/de6150210820f33a29d2f32f030b88ab.jpg Скачать фильм Белый парень Рик через торрент бесплантно в хорошем качестве Описание: Основанная на реальных событиях история жизни Ричарда Вэрша-младшего, который в 80-х годах прошлого века работал тайным ... 9.9 10 9
Торрент: Зарегистрирован [2019-03-10 19:11] · скачан: 340 раз
Статус: T временная
Размер: 1.89 GB
Как cкачать? Как скачать Белый парень Рик через торрент | qTorrent

% Раздел Тема Автор DL S | L
Фильмы 2018 [DVDrip, WEB-DLRip, HDrip] (DUB, MVO) [ 2.18 GB ] Белый парень Рик / White Boy Rick [2018 BDRip] DUB [ R5] bober100 Скачать
2 | 0
Ultra HD (UHD: 2K, 4K, 8K) — видео сверхвысокой чёткости [ 11.84 GB ] Белый парень Рик / White Boy Rick [2018 биография UHD WEBRip 2160p] DUB [] + MVO [HDRezka Studio] sheker187 Скачать
1 | 0
Фильмы 2018 [DVDrip, WEB-DLRip, HDrip] (DUB, MVO) [ 1.46 GB ] Белый парень Рик / White Boy Rick [2018 BDRip] DUB [ BD EUR] bober100 Скачать
3 | 0
Фильмы 2018 [DVDrip, WEB-DLRip, HDrip] (DUB, MVO) [ 746 MB ] Белый парень Рик / White Boy Rick [2018 BDRip] DUB [ R5] bober100 Скачать
1 | 0
Фильмы (Blu-ray, BD-Remux, HDDVD) [ 21.99 GB ] Белый парень Рик / White Boy Rick [2018 BD Remux 1080p] MVO [HDrezka Studio] +DUB [ BD EUR] bober100 Скачать
1 | 0
Фильмы [HD 720p, 1080p] (Хороший звук DUB, MVO) [ 6.52 GB ] Белый парень Рик / White Boy Rick [2018 BDRip 720p] MVO [HDrezka Studio] +DUB [ BD EUR] bober100 Скачать
2 | 0
Фильмы [HD 720p, 1080p] (Хороший звук DUB, MVO) [ 13.41 GB ] Белый парень Рик / White Boy Rick [2018 BDRip 1080p] MVO [HDrezka Studio] +DUB [ BD EUR] bober100 Скачать
1 | 0

28-11-2019 20:33  

Отключить всю рекламу на сайте

11-03-2019 17:47 Белый парень Рик Скачать торрент  

Хороший фильм и МакКонахи как всегда зачет!pb.wtf



19-03-2019 21:56 Белый парень Рик Скачать торрент  

Фильм понравился. автору рипа спасибо. для просмотра на ноуте то что надо.pb.wtf



    Дорогой пользователь! Огромная просьба, поблагодарите релизера, оцените раздачу и оставьте свои комментарий, если Вы скачали Белый парень Рик через торрент бесплатно! Внесите свою лепту в развитие PiratBit!
    Комментировать посты могут только пользователи прошедшие не сложную регистрацию
    Показать сообщения:    

    Белый парень Рик через торрент
    Скачать бесплатно Белый парень Рик
    Белый парень Рик скачать торрент
    Белый парень Рик смотреть онлайн
    Cкачать фильм Белый парень Рик бесплатно
    Белый парень Рик скачать торрент в хорошем качестве
    Белый парень Рик смотреть онлайн бесплатно в хорошем качестве


    Вы не можете начинать темы
    Вы не можете отвечать на сообщения
    Вы не можете редактировать свои сообщения
    Вы не можете удалять свои сообщения
    Вы не можете голосовать в опросах
    Вы не можете прикреплять файлы к сообщениям
    Вы можете скачивать файлы